Человек, который плакал / Плачущий убийца / No Tears For Dead (Ли Чжон Бом / Lee Jeong Beom) [2014 г., Драма, боевик, HDTVRip]

Ответить на тему
 

triller ®

Стаж: 4 года 11 месяцев

Сообщений: 20

Человек, который плакал / Плачущий убийца / No Tears For Dead
Год выпуска: 2014
Страна: Южная Корея
Жанр: Драма, боевик
Продолжительность: 01:56:12
Перевод: Любительский (двухголосый)
Режиссер: Ли Чжон Бом / Lee Jeong Beom
В ролях: Дон Гон Чан, Мин Хи Ким, Брайан Ти, Дженнифер Баттелл, Алессандро Куомо, Хи Вон Ким, Хан На Кан, Сон Ук Мин, Чжун Сон Ким, Ё Хан Бён, Энтони Дилио, Дэна Ли, Рич Тинг, Александр Рэйт
Описание: Бросив свою мать, Кон эмигрировал в Америку, чтобы стать наемным убийцей. Однажды, во время выполнения очередного заказного убийства, Кон случайно убивает молодую девчушку и страдает от чувства вины за убийство невинного ребенка. Его босс дает киллеру новое задание — убить мать девочки. Новая цель Кона — Мо Кён работает менеджером в инвестиционной компании. Убитая горем мать хоронит себя в своей работе, не зная, что находится в самом центре опасного заговора. И тогда, она встречает человека, который хочет рассказать ей правду о смерти ее ребенка. Кон решил для себя, что он не позволит своим работодателям убить Мо Кён...

MediaInfo

Формат : Matroska
Версия формата : Version 2
Размер файла : 1,96 Гбайт
Продолжительность : 1 ч. 56 м.
Режим общего битрейта : Переменный
Общий поток : 2410 Кбит/сек
Дата кодирования : UTC 2014-08-08 18:33:32
Программа кодирования : mkvmerge v5.4.0 ('Piper') built on Mar 10 2012 13:34:39
Библиотека кодирования : libebml v1.2.3 + libmatroska v1.3.0
Видео
Идентификатор : 1
Формат : AVC
Формат/Информация : Advanced Video Codec
Профиль формата : [email protected]
Параметр CABAC формата : Да
Параметр ReFrames формата : 5 кадров
Идентификатор кодека : V_MPEG4/ISO/AVC
Продолжительность : 1 ч. 56 м.
Вид битрейта : Переменный
Битрейт : 2220 Кбит/сек
Максимальный битрейт : 40,0 Мбит/сек
Ширина : 1280 пикселей
Высота : 536 пикселей
Соотношение сторон : 2,40:1
Режим частоты кадров : Постоянный
Частота кадров : 23,976 кадра/сек
Цветовое пространство : YUV
Субдискретизация насыщенности : 4:2:0
Битовая глубина : 8 бит
Тип развёртки : Прогрессивная
Бит/(Пиксели*Кадры) : 0.135
Размер потока : 1,77 Гбайт (90%)
Заголовок : [GREEN TEA] Плачущий убийца / No Tears For Dead
Библиотека кодирования : x264 core 130 r2273 b3065e6
Настройки программы : cabac=1 / ref=5 / deblock=1:-1:-1 / analyse=0x3:0x133 / me=umh / subme=10 / psy=1 / psy_rd=1.00:0.00 / mixed_ref=1 / me_range=24 / chroma_me=1 / trellis=2 / 8x8dct=1 / cqm=0 / deadzone=21,11 / fast_pskip=0 / chroma_qp_offset=-2 / threads=6 / lookahead_threads=1 / sliced_threads=0 / nr=0 / decimate=1 / interlaced=0 / bluray_compat=0 / constrained_intra=0 / bframes=4 / b_pyramid=2 / b_adapt=2 / b_bias=0 / direct=3 / weightb=1 / open_gop=0 / weightp=2 / keyint=250 / keyint_min=23 / scenecut=40 / intra_refresh=0 / rc_lookahead=60 / rc=2pass / mbtree=1 / bitrate=2220 / ratetol=1.0 / qcomp=0.60 / qpmin=10 / qpmax=51 / qpstep=4 / cplxblur=20.0 / qblur=0.5 / ip_ratio=1.40 / aq=1:1.0
Язык : Korean
Default : Да
Forced : Нет
Аудио
Идентификатор : 2
Формат : AC-3
Формат/Информация : Audio Coding 3
Расширение режима : CM (complete main)
Параметр Endianness формата : Big
Идентификатор кодека : A_AC3
Продолжительность : 1 ч. 56 м.
Вид битрейта : Постоянный
Битрейт : 192 Кбит/сек
Каналы : 2 канала
Расположение каналов : Front: L R
Частота : 48,0 КГц
Битовая глубина : 16 бит
Метод сжатия : С потерями
Размер потока : 160 Мбайт (8%)
Заголовок : AC3 2.0CH @ 192K [Ольга Гринтиева и Константин Романов | GREEN TEA ]
Язык : Russian
Default : Да
Forced : Да
Качество: HDTVRip
Формат: MKV
Видео кодек: Другой MPEG4
Аудио кодек: AC3
Видео: MPEG-4 AVC / High Profile 4.1 / 1280x536 / 23.976 fps / 2220 kbps
Аудио: Русский / AC3 2ch / 48 KHz / 192 kbps |ЛД|

Скриншоты

Создавать темы 13-Янв-2015 12:43

[Профиль]  [ЛС] 

odil12345

Стаж: 4 года 6 месяцев

Сообщений: 2

раздача?

Создавать темы 13-Янв-2015 20:54

[Профиль]  [ЛС] 

triller ®

Стаж: 4 года 11 месяцев

Сообщений: 20

911087раздача?
По вечерам стабильно)

Создавать темы 13-Янв-2015 23:12

[Профиль]  [ЛС] 

Farrux2012

Стаж: 5 лет 9 месяцев

Сообщений: 28

Симпатии: 2

Фильм Супер! Советую всем.

Создавать темы 09-Фев-2015 18:06

[Профиль]  [ЛС] 
Показать сообщения:    
Ответить на тему

Текущее время: 22-Авг 08:41

Часовой пояс: UTC + 5



Вы не можете начинать темы
Вы не можете отвечать на сообщения
Вы не можете редактировать свои сообщения
Вы не можете удалять свои сообщения
Вы не можете голосовать в опросах
Вы не можете прикреплять файлы к сообщениям
Вы не можете скачивать файлы