Исчезающая точка / Vanishing Point (Ричард С. Сарафьян) [1971 г., боевик, триллер, BDRip-AVC 720p] MVO (1 канал) + Sub (Rus, Eng)

Ответить на тему
 

lotto ®

Стаж: 7 лет 10 месяцев

Сообщений: 221

Симпатии: 409

Исчезающая точка / Vanishing Point
«It's the maximum trip... at maximum speed»
-- Год выпуска: 1971
Страна: США, Великобритания
Жанр: боевик, триллер
Продолжительность: 01:38:46
Перевод: Профессиональный (многоголосый, закадровый)--Режиссер: Ричард С. Сарафьян
В ролях: Бэрри Ньюман, Кливон Литтл, Дин Джэггер, Виктория Медлин, Пол Косло, Роберт Доннер, Тимоти Скотт, Гилда Текстер, Энтони Джеймс, Артур Мэлет--Описание: Зарабатывая на жизнь перегоном машин из города в город, Ковальски получает очередное задание — доставить белый «Додж Челленджер» в Сан-Франциско из Денвера. Когда его пытаются остановить полицейские по неясной причине, Ковальски демонстративно отказывается подчиняться властям и упорно уходит от преследования, следя лишь за тем, чтобы никто из гонящихся за ним полицейских не погиб…-- --Качество: BDRip-AVC
Формат: MKV
Видео кодек: H.264 Hi10P
Аудио кодек: AC3
Видео: 1280x694, 3519 Кbps, 23,976fps
Аудио: 48 kHz, 2ch, 192 kbps (русский. многоголосый)
Субтитры: русские, английские

MediaInfo

General
Unique ID : 224104386559459242526030970357585974496 (0xA898EF53ECB9FF9A5DE409E1703294E0)
Complete name : /Vanishing Point.1971.BDRip-AVC.mkv
Format : Matroska
Format version : Version 4 / Version 2
File size : 2.61 GiB
Duration : 1h 38mn
Overall bit rate : 3 787 Kbps
Movie name : Vanishing Point
Encoded date : UTC 2015-01-16 06:23:15
Writing application : mkvmerge v7.2.0 ('On Every Street') 64bit built on Oct 7 2014 18:52:30
Writing library : libebml v1.3.0 + libmatroska v1.4.1
DURATION : 01:30:24.636000000
NUMBER_OF_FRAMES : 696
NUMBER_OF_BYTES : 24455
_STATISTICS_WRITING_APP : mkvmerge v7.2.0 ('On Every Street') 64bit built on Oct 7 2014 18:52:30
_STATISTICS_WRITING_DATE_UTC : 2015-01-16 06:23:15
_STATISTICS_TAGS : BPS DURATION NUMBER_OF_FRAMES NUMBER_OF_BYTES
Attachment : Yes
Video
ID : 1
Format : AVC
Format/Info : Advanced Video Codec
Format profile : High [email protected]
Format settings, CABAC : Yes
Format settings, ReFrames : 11 frames
Codec ID : V_MPEG4/ISO/AVC
Duration : 1h 38mn
Bit rate : 3 519 Kbps
Width : 1 280 pixels
Height : 694 pixels
Display aspect ratio : 1.85:1
Frame rate mode : Constant
Frame rate : 23.976 fps
Color space : YUV
Chroma subsampling : 4:2:0
Bit depth : 10 bits
Scan type : Progressive
Bits/(Pixel*Frame) : 0.165
Stream size : 2.43 GiB (93%)
Title : MPEG-4 AVC/H.264, 1280x694(1,85:1), 23,976fps, 3519 Кbps, 0.165bit/pixel
Writing library : x264 core 133 r2334 a3ac64b
Encoding settings : cabac=1 / ref=11 / deblock=1:-1:-1 / analyse=0x3:0x133 / me=tesa / subme=9 / psy=1 / psy_rd=1.00:0.00 / mixed_ref=1 / me_range=24 / chroma_me=1 / trellis=0 / 8x8dct=1 / cqm=0 / deadzone=21,11 / fast_pskip=1 / chroma_qp_offset=-2 / threads=4 / lookahead_threads=1 / sliced_threads=0 / nr=0 / decimate=1 / interlaced=0 / bluray_compat=0 / constrained_intra=0 / bframes=6 / b_pyramid=2 / b_adapt=2 / b_bias=0 / direct=1 / weightb=1 / open_gop=0 / weightp=2 / keyint=250 / keyint_min=50 / scenecut=40 / intra_refresh=0 / rc_lookahead=50 / rc=crf / mbtree=1 / crf=22.0 / qcomp=0.60 / qpmin=1 / qpmax=51 / qpstep=11 / ip_ratio=1.40 / aq=1:0.90
Language : English
Default : Yes
Forced : No
DURATION : 01:38:45.920000000
NUMBER_OF_FRAMES : 142080
NUMBER_OF_BYTES : 2661581352
_STATISTICS_WRITING_APP : mkvmerge v7.2.0 ('On Every Street') 64bit built on Oct 7 2014 18:52:30
_STATISTICS_WRITING_DATE_UTC : 2015-01-16 06:23:15
_STATISTICS_TAGS : BPS DURATION NUMBER_OF_FRAMES NUMBER_OF_BYTES
Audio
ID : 2
Format : AC-3
Format/Info : Audio Coding 3
Mode extension : CM (complete main)
Format settings, Endianness : Big
Codec ID : A_AC3
Duration : 1h 38mn
Bit rate mode : Constant
Bit rate : 192 Kbps
Channel(s) : 2 channels
Channel positions : Front: L R
Sampling rate : 48.0 KHz
Bit depth : 16 bits
Compression mode : Lossy
Stream size : 136 MiB (5%)
Title : MVO Russian, AC3, 2ch, 48 kHz, 192 kbps, (Многоголосый - 1 канал)
Language : Russian
Default : Yes
Forced : No
Text #1
ID : 3
Format : UTF-8
Codec ID : S_TEXT/UTF8
Codec ID/Info : UTF-8 Plain Text
Title : №1
Language : Russian
Default : No
Forced : No
Text #2
ID : 4
Format : UTF-8
Codec ID : S_TEXT/UTF8
Codec ID/Info : UTF-8 Plain Text
Title : №2
Language : Russian
Default : No
Forced : No
Text #3
ID : 5
Format : UTF-8
Codec ID : S_TEXT/UTF8
Codec ID/Info : UTF-8 Plain Text
Language : English
Default : No
Forced : No

Скриншоты



Создавать темы 16-Янв-2015 11:52

[Профиль]  [ЛС] 
Показать сообщения:    
Ответить на тему

Текущее время: 20-Ноя 06:59

Часовой пояс: UTC + 5



Вы не можете начинать темы
Вы не можете отвечать на сообщения
Вы не можете редактировать свои сообщения
Вы не можете удалять свои сообщения
Вы не можете голосовать в опросах
Вы не можете прикреплять файлы к сообщениям
Вы не можете скачивать файлы