125 км. до Мумбаи / Mumbai 125 KM (Хемант Мадхукар / Hemant Madhukar) [2014, Ужасы ] / Mumbai 125 KM (Хемант Мадхукар / Hemant Madhukar) [2014 г., Ужасы, мистика, SATRip]

Ответить на тему
 

Davron1402 ®

Стаж: 3 года 11 месяцев

Сообщений: 136

Симпатии: 122

125 км. до Мумбаи / Mumbai 125 KM
Год выпуска: 2014
Страна: Индия
Жанр: Ужасы, мистика
Продолжительность: 01:37:03
Перевод: Любительский (двухголосый)- DeadSno & den904
Перевод и редакция: Honey&Haseena
Режиссер: Хемант Мадхукар / Hemant Madhukar
В ролях: Вина Малик, Апарна Баджпаи, Каранвир Бохра, Джой Деброй, Видже Бхатия, Ведита Пратап Сингх, Раджив Ананд
Описание: Пятеро молодых людей, выиграв билеты на празднование Нового Года, отправляются в Мумбаи на машине. Внезапно, некая женщина в окровавленном белом платье начинает преследовать молодых ребят и убивать их по одному. Пытаясь спасти свои жизни, друзья пытаются уехать с злосчастного места, но не тут-то было. Как бы они не старались доехать до Мумбаи, до него всегда остаётся 125 км….(c) Honey.
Качество: SATRip
Формат: AVI
Видео кодек: XviD
Аудио кодек: MPEG Audio
Видео: XviD, 640 x 480 (4:3), 29.970 fps, 907 Kbps
Аудио: MPEG Audio, 44.1 KHz, 2 channels, 128 Kbps

MI

Расположение: D:\KINO\Indiskie Kino\125.Km.Do.Mumbai.2014.avi
Имя файла: 125.Km.Do.Mumbai.2014.avi
Формат файла: .avi (AVI)
Размер файла: 727.70 MB
Длительность: 1h 37mn
Навигация по главам: Нет
Bitrate (все потоки): 1 048 Kbps
...при помощи: Lavf51.12.1
Название: 125.Km.Do.Mumbai.2014
Тип потока: Видео
Длительность: 01:37:03
Кодек: xvid
Кодек/ID: xvid
Размеры изображения: 640 x 480 (4:3)
Частота кадров: 29.970 fps
Размер потока: 630 MiB (87%)
Битрейт: 907 Kbps
Тип потока: Звук #1
Длительность: 01:37:03.425
Кодек: MPEG Audio
Кодек/Профиль: Layer 3
Кодек/ID: 55
Частота дискретизации: 44.1 KHz
Каналов: 2 channels
Битрейт: 128 Kbps
Битрейт/тип: Constant
Размер потока: 88.9 MiB (12%)
Метод сжатия: Lossy
Программа: LAME / !µЊb0и,З4АЎ

Скриншоты



Создавать темы 16-Янв-2015 20:45

[Профиль]  [ЛС] 

vanfank

Стаж: 4 года 7 месяцев

Сообщений: 141

Симпатии: 5

Сиськи)))

Создавать темы 16-Янв-2015 21:52

[Профиль]  [ЛС] 

muzakiller

Стаж: 6 лет 11 месяцев

Сообщений: 4

privet

Создавать темы 28-Янв-2015 23:04

[Профиль]  [ЛС] 

Davron1402 ®

Стаж: 3 года 11 месяцев

Сообщений: 136

Симпатии: 122

Привет

Создавать темы 30-Янв-2015 23:23

[Профиль]  [ЛС] 

Эльдор

Стаж: 7 лет 9 месяцев

Сообщений: 14

Симпатии: 1

дайте газууууу

Создавать темы 03-Фев-2015 21:17

[Профиль]  [ЛС] 
Показать сообщения:    
Ответить на тему

Текущее время: 12-Дек 17:00

Часовой пояс: UTC + 5



Вы не можете начинать темы
Вы не можете отвечать на сообщения
Вы не можете редактировать свои сообщения
Вы не можете удалять свои сообщения
Вы не можете голосовать в опросах
Вы не можете прикреплять файлы к сообщениям
Вы не можете скачивать файлы