Кулак легенды: Возвращение Чен Жена / Legend of the Fist: The Return of Chen Zhen (Вэй Кеунг Лау) [2010 г., Боевик, драма, история, DVDRip]

Ответить на тему
 

mansurjon ®

Стаж: 7 лет 5 месяцев

Сообщений: 103

Симпатии: 3

Кулак легенды: Возвращение Чен Жена / Jing mo fung wan: Chen Zhen / Legend of the Fist: The Return of Chen Zhen Год выпуска: 2010
Страна: Гонконг, Китай
Жанр: Боевик, драма, история
Продолжительность: 01:44:40
Перевод: Любительский (одноголосый)
Режиссер: Вэй Кеунг Лау
В ролях: Донни Ен, Шу Ци, Ясуаки Курата, Энтони Вонг Чау-Санг, Шон Юе Рю Кошат, Карл Игнэкзэк, Хуанг Во, Джиэджия Чен, Сайан Го

Спустя семь лет после смерти Чен Чжена, который, как выяснилось был убит во время войны, в Шанхай приезжает таинственный незнакомец из-за границы и оказывает поддержку местному боссу мафии. Этот человек и есть замаскированный Чен Чжен, который намеревается проникнуть в круги власти, и нанести свой удар если Шанхай заключит союз с японцами...
IMDB Rating: 6.1/10 (438 votes)
Качество: DVDRip
Формат: AVI
Видео кодек: XviD
Аудио кодек: MP3
Видео: Xvid 640x282 25.00fps 815kbps
Аудио: MPEG Audio Layer 3 44100Hz stereo 112kbps

MediaInfo

General
Complete name : Kulak.Legendi.2010.DVDRip.700MB.avi
Format : AVI
Format/Info : Audio Video Interleave
File size : 704 MiB
Duration : 1h 44mn
Overall bit rate : 940 Kbps
Writing application : Lavf50.6.0
Video
Format : xvid
Codec ID : xvid
Duration : 1h 44mn
Bit rate : 815 Kbps
Width : 640 pixels
Height : 282 pixels
Display aspect ratio : 2.25:1
Frame rate : 25.000 fps
Bits/(Pixel*Frame) : 0.181
Stream size : 610 MiB (87%)
Audio
ID : 1
Format : MPEG Audio
Format version : Version 1
Format profile : Layer 3
Format_Settings_Mode : Joint stereo / MS Stereo
Codec ID : 55
Codec ID/Hint : MP3
Duration : 1h 44mn
Bit rate mode : Constant
Bit rate : 112 Kbps
Channel(s) : 2 channels
Sampling rate : 44.1 KHz
Stream size : 83.9 MiB (12%)
Alignment : Aligned on interleaves
Interleave, duration : 26 ms (0.65 video frame)
Interleave, preload duration : 26 ms

Скриншоты





Создавать темы 04-Ноя-2010 06:07

[Профиль]  [ЛС] 

islom_89_89_89

Стаж: 7 лет 5 месяцев

Сообщений: 4

http://tas-ix.net/viewtopic.php?t=10162 qo`yilgan kinoni qaytadan qo`yilibdiku !!!

Создавать темы 04-Ноя-2010 13:12

[Профиль]  [ЛС] 

ziyod

Стаж: 7 лет 7 месяцев

Сообщений: 367

Симпатии: 60

http://tas-ix.net/viewtopic.php?t=10162 qo`yilgan kinoni qaytadan qo`yilibdiku !!!
да??? А мы не знали. А мы знаем что ты точно получешь БАН если еще раз напишешь пост на латинице!!!

Создавать темы 04-Ноя-2010 13:15

[Профиль]  [ЛС] 

nigga22480

Стаж: 7 лет 5 месяцев

Сообщений: 211

Симпатии: 13

СПасиб, Мансуржон а то пришлось самому выложить эту версию... Спасибо, что цените Китайский фильмы!!!

Создавать темы 05-Ноя-2010 13:51

[Профиль]  [ЛС] 

mansurjon ®

Стаж: 7 лет 5 месяцев

Сообщений: 103

Симпатии: 3

nigga22480 еще раз удивил актерский мастерство Донни Ена
и тебе спасибо

Создавать темы 05-Ноя-2010 14:20

[Профиль]  [ЛС] 

Barcelona

Стаж: 6 лет 11 месяцев

Сообщений: 16

Скорость можно побольше

Создавать темы 07-Ноя-2010 13:55

[Профиль]  [ЛС] 

freax3

Стаж: 7 лет 10 месяцев

Сообщений: 4

ето что 3д фильм?

Создавать темы 26-Июл-2011 22:16

[Профиль]  [ЛС] 

Топик был перенесен из форума Фильмы за 2010 в форум Азиатские фильмы


victor0778

Создавать темы 16-Янв-2012 13:28

 

sila4

Стаж: 5 лет 8 месяцев

Сообщений: 27

Симпатии: 3

раздачу

Создавать темы 24-Апр-2012 01:28

[Профиль]  [ЛС] 
Показать сообщения:    
Ответить на тему

Текущее время: 19-Окт 12:24

Часовой пояс: UTC + 5



Вы не можете начинать темы
Вы не можете отвечать на сообщения
Вы не можете редактировать свои сообщения
Вы не можете удалять свои сообщения
Вы не можете голосовать в опросах
Вы не можете прикреплять файлы к сообщениям
Вы не можете скачивать файлы