Yuri Kuma Arashi / Медвежья буря, лилий ураган [TV] (Икухара Кунихико) [12 из 12] [RUS] [Shina & Гамлетка Цезаревна & 9й Неизвестный & Holly] [2015 г., сёдзё-ай, HDTVRip] [720p]

Ответить на тему
 

SNIL ®

Стаж: 5 лет 9 месяцев

Сообщений: 2624

Симпатии: 341

Yuri Kuma Arashi
Медвежья буря, лилий ураган
-
Год выпуска: 2015
Страна: Япония
Жанр: сёдзё-ай
Продолжительность: 12 эп. по 25 мин.-Озвучка:
  • Shina & Гамлетка Цезаревна & 9й Неизвестный & Holly
-Режиссёр: Икухара Кунихико
Автор оригинала: Иками Такаё
Студия: Silver Link-Описание:
Однажды утром Камелия Курэха и Идзумино Флори, ученицы академии «Буревестная», вместе любовались цветами лилий на клумбе, что хранит память об их любви. И вдруг завопил «Медвежий ревун» — глашатай, что возвестил о вторжении медведей.
Что же это за медведи? Загадок становится всё больше — они как волны, что в час бури набегают одна за другой. Поднимается занавес. Да начнётся медвежья буря — прекрасных лилий ураган!-Качество: HDTVRip
Формат видео: mp4
Видео: x264; 1280x720; 23.976fps; ~2500 kbps 8bit
Аудио Russian: ААС, 48.0 kHz, 192 Kbps, 2ch -

Подробные тех. данные

E:\Аниме\Yuri Kuma Arashi\[AniDub]_Yuri_Kuma_Arashi_TV_[01]_[720p_h264_AAC]_[Shina_Hamletka_Cezarevna_Holly_9th_Unknown].mp4
   General
      Complete name : E:\Аниме\Yuri Kuma Arashi\[AniDub]_Yuri_Kuma_Arashi_TV_[01]_[720p_h264_AAC]_[Shina_Hamletka_Cezarevna_Holly_9th_Unknown].mp4
      Format : MPEG-4
      Format profile : Base Media
      Codec ID : isom
      File size : 426 MiB
      Duration : 24mn 5s
      Overall bit rate : 2 472 Kbps
      Encoded date : UTC 2015-01-06 13:37:06
      Tagged date : UTC 2015-01-06 13:37:06
      Writing application : Yamb 2.1.0.0 [http://yamb.unite-video.com]
   Video #1
      ID : 1
      Format : AVC
      Format/Info : Advanced Video Codec
      Format profile : High@L4.1
      Format settings, CABAC : Yes
      Format settings, ReFrames : 4 frames
      Codec ID : avc1
      Codec ID/Info : Advanced Video Coding
      Duration : 23mn 59s
      Bit rate mode : Variable
      Bit rate : 2 157 Kbps
      Maximum bit rate : 16.0 Mbps
      Width : 1 280 pixels
      Height : 720 pixels
      Display aspect ratio : 16:9
      Frame rate mode : Constant
      Frame rate : 23.976 fps
      Color space : YUV
      Chroma subsampling : 4:2:0
      Bit depth : 8 bits
      Scan type : Progressive
      Bits/(Pixel*Frame) : 0.098
      Stream size : 370 MiB (87%)
      Title : 264
      Writing library : x264 core 129 r2245+729M 1a52e03
      Encoding settings : cabac=1 / ref=4 / deblock=1:1:-1 / analyse=0x3:0x113 / me=umh / subme=9 / psy=1 / fade_compensate=0.00 / psy_rd=1.00:0.00 / mixed_ref=1 / me_range=24 / chroma_me=1 / trellis=2 / 8x8dct=1 / cqm=0 / deadzone=21,11 / fast_pskip=1 / chroma_qp_offset=-2 / threads=8 / lookahead_threads=1 / sliced_threads=0 / nr=0 / decimate=1 / interlaced=0 / bluray_compat=0 / constrained_intra=0 / fgo=0 / bframes=9 / b_pyramid=2 / b_adapt=2 / b_bias=0 / direct=1 / weightb=1 / open_gop=0 / weightp=2 / keyint=240 / keyint_min=24 / scenecut=40 / intra_refresh=0 / rc=crf / mbtree=0 / crf=18.5 / qcomp=0.72 / qpmin=0 / qpmax=69 / qpstep=4 / ip_ratio=1.40 / pb_ratio=1.30 / aq=1:0.85
      Encoded date : UTC 2015-01-05 18:27:12
      Tagged date : UTC 2015-01-06 13:38:45
      Color primaries : BT.709-5, BT.1361, IEC 61966-2-4, SMPTE RP177
      Transfer characteristics : BT.709-5, BT.1361
      Matrix coefficients : BT.709-5, BT.1361, IEC 61966-2-4 709, SMPTE RP177
   Audio #2
      ID : 2
      Format : AAC
      Format/Info : Advanced Audio Codec
      Format version : Version 4
      Format profile : LC
      Format settings, SBR : No
      Codec ID : 40
      Duration : 24mn 5s
      Bit rate mode : Variable
      Bit rate : 320 Kbps
      Maximum bit rate : 331 Kbps
      Channel(s) : 2 channels
      Channel positions : Front: L R
      Sampling rate : 48.0 KHz
      Stream size : 55.1 MiB (13%)
      Language : Russian
      Encoded date : UTC 2015-01-06 13:38:26
      Tagged date : UTC 2015-01-06 13:38:45

Скриншоты



Последний раз редактировалось: SNIL (2015-04-17 23:04), всего редактировалось 11 раз(а)

Создавать темы 19-Янв-2015 22:25

[Профиль]  [ЛС] 

SNIL ®

Стаж: 5 лет 9 месяцев

Сообщений: 2624

Симпатии: 341

Раздача после того как раздам ранее залитые релизы!

Создавать темы 19-Янв-2015 22:28

[Профиль]  [ЛС] 

SNIL ®

Стаж: 5 лет 9 месяцев

Сообщений: 2624

Симпатии: 341

Серия 3

Создавать темы 24-Янв-2015 15:14

[Профиль]  [ЛС] 

Азиз87

Стаж: 4 года 11 месяцев

Сообщений: 752

Симпатии: 143

Посмотрел я сегодня 2 серии и подумал стиль "Пингвиньего Барабана" in progress, плюс ко всему присутствуют во 2-ой серии ненужные (шаблоные) филеры первой, однако хорошо продуманная арка событий на удивление хороша, графон на любителя, озвучка 10/10.

Комментарий от SNIL


Ну значит не зря качаю!

Создавать темы 24-Янв-2015 21:51

[Профиль]  [ЛС] 

SNIL ®

Стаж: 5 лет 9 месяцев

Сообщений: 2624

Симпатии: 341

Серия 4

Создавать темы 03-Фев-2015 22:45

[Профиль]  [ЛС] 

Азиз87

Стаж: 4 года 11 месяцев

Сообщений: 752

Симпатии: 143

Прошло: 6 ч 3 мин
Загружено: 62.8 МБ
Никогда так сильно не хотел чтобы Уо провайдер сыграл в ящик bu .

Создавать темы 04-Фев-2015 14:39

[Профиль]  [ЛС] 

blackshark

Стаж: 6 лет 10 месяцев

Сообщений: 260

Симпатии: 23

Может нормально встаните на раздачу ну......

Комментарий от SNIL


Несколько скачавших есть! Я пока раздаю другие онгоинги!

Создавать темы 06-Фев-2015 01:53

[Профиль]  [ЛС] 

LikeSmile

Стаж: 4 года 5 месяцев

Сообщений: 298

Симпатии: 48

blackshark, терпение .-. я релизы годами качал и ничего, не помер

Комментарий от SNIL


Не утрируй! Я всегда стараюсь норм раздавать хотя-бы до одного сида (а то что вы друг другу плохо раздаёте, общая беда (у меня не оптика чтоб всё и всем на высокой скорости))

Создавать темы 06-Фев-2015 06:26

[Профиль]  [ЛС] 

SNIL ®

Стаж: 5 лет 9 месяцев

Сообщений: 2624

Симпатии: 341

Серия 5

Создавать темы 11-Фев-2015 21:44

[Профиль]  [ЛС] 

SNIL ®

Стаж: 5 лет 9 месяцев

Сообщений: 2624

Симпатии: 341

Серия 6

Создавать темы 26-Фев-2015 08:01

[Профиль]  [ЛС] 

SNIL ®

Стаж: 5 лет 9 месяцев

Сообщений: 2624

Симпатии: 341

Серия 7

Создавать темы 02-Мар-2015 19:04

[Профиль]  [ЛС] 

SNIL ®

Стаж: 5 лет 9 месяцев

Сообщений: 2624

Симпатии: 341

Серия 8

Создавать темы 20-Мар-2015 18:44

[Профиль]  [ЛС] 

SNIL ®

Стаж: 5 лет 9 месяцев

Сообщений: 2624

Симпатии: 341

Серия 9-10


Последний раз редактировалось: SNIL (2015-04-17 23:06), всего редактировалось 1 раз

Создавать темы 13-Апр-2015 20:37

[Профиль]  [ЛС] 

Топик был перенесен из форума Аниме онгоинги в форум HD, HDTVRip
SNIL

Создавать темы 17-Апр-2015 23:04

 

SNIL ®

Стаж: 5 лет 9 месяцев

Сообщений: 2624

Симпатии: 341

Серия 11-12Релиз завершён

Создавать темы 17-Апр-2015 23:05

[Профиль]  [ЛС] 
Показать сообщения:    
Ответить на тему

Текущее время: 23-Окт 09:33

Часовой пояс: UTC + 5



Вы не можете начинать темы
Вы не можете отвечать на сообщения
Вы не можете редактировать свои сообщения
Вы не можете удалять свои сообщения
Вы не можете голосовать в опросах
Вы не можете прикреплять файлы к сообщениям
Вы не можете скачивать файлы