МосГаз (Серии: 1-8 из 8) (Андрей Малюков) [2012г., Детектив, Криминал, HDTVRip]

Страницы :  1, 2  След.

Ответить на тему
 

Mercuriy ®

Стаж: 5 лет 11 месяцев

Сообщений: 418

Симпатии: 100

--МосГаз-(Серии: с 1-й по 8-ю из 8)-- Год выпуска: 2012
Страна: Россия, Russia Студия Русский проект
Жанр: Детектив, Криминал
Серии: 1-8 из 8
Продолжительность: ~ 01:00:00
Перевод: Не требуется--Режиссеры: Андрей Малюков--В ролях: Анатолий Кузнецов, Марина Александрова, Агния Кузнецова, Андрей Смоляков, Светлана Ходченкова, Юрий Чурсин, Максим Матвеев, Александр Андриенко, Денис Курочка, Иван Оранский, Илья Бутковский, Александр Мякушко, Юрий Воробьев, Юрий Тарасов, Семен Трескунов, Андрей Якимов--Описание: 1962 год. Москва. Владимир Ионесян, по кличке Мосгаз, стал первым официально признанным серийным маньяком в Советском Союзе. Его кровавые деяния навсегда вошли в историю криминалистики, а его прозвищем мамы пугали детей. Представляясь работником Мосгаза, маньяк свободно проникал в квартиры людей, выбирал жертву и оценивал благосостояние хозяев квартир. Позже следствие докажет причастность Мосгаза к шести убийствам, в том числе на его совести четыре смерти несовершеннолетних граждан СССР. Мало кто знает, что все свои преступления Мосгаз посвятил юной артистке кордебалета. Он убивал с легкостью, словно играл роль. По приказу Хрущева на поимку серийного убийцы отводилось две недели. Приказ был выполнен в срок. Что двигало преступником: жажда наживы, несчастная любовь или болезненное стремление убивать?
--Релиз:
 -- --Качество: HDTVRip
Формат: AVI
Видео кодек: MPEG-4 XviD
Аудио кодек: MP3
Видео: 720x400 (1.80:1), 25 fps, XviD MPEG-4 ~1800 kbps avg, 0.25 bit/pixel
Аудио: 48 kHz, MP3, 2/0 (L,R) ch, ~128 kbps
--

MI:

Общее
Полное имя : D:\MosGaz.HDTVRip.MediaClub\MosGaz.01.HDTVRip.MediaClub.avi
Формат : AVI
Формат/Информация : Audio Video Interleave
Размер файла : 1,14 Гбайт
Продолжительность : 1 ч. 21 м.
Общий поток : 2001 Кбит/сек
Программа кодирования : VirtualDubMod 1.5.10.3 | www.virtualdub-fr.org || (build 2550/release)
Библиотека кодирования : VirtualDub build 32507/release
Видео
Идентификатор : 0
Формат : MPEG-4 Visual
Профиль формата : Advanced [email protected]
Параметр BVOP формата : 1
Параметр QPel формата : Нет
Параметр GMC формата : Без точки перехода
Параметр матрицы формата : Выборочная
Идентификатор кодека : XVID
Идентификатор кодека/Подсказка : XviD
Продолжительность : 1 ч. 21 м.
Битрейт : 1799 Кбит/сек
Ширина : 720 пикселей
Высота : 400 пикселей
Соотношение сторон : 16:9
Частота кадров : 25,000 кадров/сек
Цветовое пространство : YUV
Субдискретизация насыщенности : 4:2:0
Битовая глубина : 8 бит
Тип развёртки : Прогрессивная
Метод сжатия : С потерями
Бит/(Пиксели*Кадры) : 0.250
Размер потока : 1,03 Гбайт (90%)
Библиотека кодирования : XviD 73
Аудио
Идентификатор : 1
Формат : AC-3
Формат/Информация : Audio Coding 3
Расширение режима : CM (complete main)
Параметр Endianness формата : Big
Идентификатор кодека : 2000
Продолжительность : 1 ч. 21 м.
Вид битрейта : Постоянный
Битрейт : 192 Кбит/сек
Каналы : 2 канала
Расположение каналов : Front: L R
Частота : 48,0 КГц
Битовая глубина : 16 бит
Метод сжатия : С потерями
Размер потока : 112 Мбайт (10%)
Выравнивание : Разделение по промежуткам
Продолжительность промежутка : 40 мс. (1,00 видеокадр)
Время предзагрузки промежутка : 500 мс.
--

Внимание: Раздача ведётся путём добавления новых серий.

Чтобы начать докачку новой серии, пользователям необходимо сделать следующее
  • Остановить скачивание,
  • Удалить старый торрент у себя из клиента (старые серии удалять не надо),
  • Скачать новый торрент и запустить его у себя в клиенте вместо старого, при этом указать клиенту путь в старую папку куда и должно происходить скачивание новых серий.
    Ваш клиент при этом должен произвести хеширование (проверку) старой папки (если не производит сам - помогите ему сделать это), и будет докачивать только те серии которых у вас ещё нет. Старые серии при этом не удаляются, а продолжают раздаваться!
    Eсли вы уже удалили старые серии, то предотвратить повторную закачку старых серий можно, отжав галочку в соответсвующих местах при запуске нового торрента. По возможности, желательно не удалять старые серии как можно дольше чтобы релизёр не столько продолжал раздавать старые серии, а смог сконцентрироваться на новых.


  • Последний раз редактировалось: Mercuriy (2015-01-23 10:10), всего редактировалось 3 раз(а)

    Создавать темы 20-Янв-2015 09:34

    [Профиль]  [ЛС] 

    Mercuriy ®

    Стаж: 5 лет 11 месяцев

    Сообщений: 418

    Симпатии: 100

    1-3 Серии. ta ta ta


    Последний раз редактировалось: Mercuriy (2015-01-21 13:59), всего редактировалось 1 раз

    Создавать темы 20-Янв-2015 09:36

    [Профиль]  [ЛС] 

    stranger

    Стаж: 5 лет 1 месяц

    Сообщений: 4

    загрузки нет ..

    Создавать темы 20-Янв-2015 16:12

    [Профиль]  [ЛС] 

    Evil Toxa

    Стаж: 3 года 11 месяцев

    Сообщений: 37

    Симпатии: 9

    когда 5-6?

    Создавать темы 21-Янв-2015 20:13

    [Профиль]  [ЛС] 

    alexey.555

    Стаж: 5 лет 6 месяцев

    Сообщений: 137

    Симпатии: 22

    Вроде не новый сериал, а по сериям добавляется, вроде должен уже быть полностью?

    Создавать темы 21-Янв-2015 22:50

    [Профиль]  [ЛС] 

    Mercuriy ®

    Стаж: 5 лет 11 месяцев

    Сообщений: 418

    Симпатии: 100

    4-6 Серии ta ta ta

    Создавать темы 22-Янв-2015 08:53

    [Профиль]  [ЛС] 

    Evil Toxa

    Стаж: 3 года 11 месяцев

    Сообщений: 37

    Симпатии: 9

    alexey.555, и за это спасибо)

    Создавать темы 22-Янв-2015 18:20

    [Профиль]  [ЛС] 

    opium-gangster

    Стаж: 4 года 6 месяцев

    Сообщений: 78

    Симпатии: 8

    оооо мосгаз, а я как раз первую и вторую серию не видел, крутяк) Даю болюшую скрость пипл

    Создавать темы 22-Янв-2015 18:25

    [Профиль]  [ЛС] 

    sevenst77

    Стаж: 5 лет 9 месяцев

    Сообщений: 40

    Кач здесь умер!

    Создавать темы 23-Янв-2015 09:05

    [Профиль]  [ЛС] 

    Mercuriy ®

    Стаж: 5 лет 11 месяцев

    Сообщений: 418

    Симпатии: 100

    Сериал полностью 8 из 8

    Создавать темы 23-Янв-2015 10:27

    [Профиль]  [ЛС] 

    Sunnat1999

    Стаж: 4 года 7 месяцев

    Сообщений: 756

    Симпатии: 416

    Помогу с раздачей

    Создавать темы 25-Янв-2015 07:06

    [Профиль]  [ЛС] 

    dima8821

    Стаж: 3 года 10 месяцев

    Сообщений: 4

    ребят дате скорость плизз

    Создавать темы 25-Янв-2015 10:45

    [Профиль]  [ЛС] 

    Mercuriy ®

    Стаж: 5 лет 11 месяцев

    Сообщений: 418

    Симпатии: 100

    mb Sunnat1999, Гранд мерси дорогой друг)

    Создавать темы 25-Янв-2015 12:04

    [Профиль]  [ЛС] 

    annaula

    Стаж: 4 года 5 месяцев

    Сообщений: 12

    Друзья дайте скорости

    Создавать темы 27-Янв-2015 20:10

    [Профиль]  [ЛС] 

    Hancock

    Стаж: 7 лет

    Сообщений: 48

    Симпатии: 1

    Сидов 5 а раздача 0.вроде 15 раз скачивали .дайте раздачу нормально.

    Создавать темы 28-Янв-2015 10:21

    [Профиль]  [ЛС] 
    Показать сообщения:    
    Ответить на тему

    Текущее время: 19-Окт 06:57

    Часовой пояс: UTC + 5



    Вы не можете начинать темы
    Вы не можете отвечать на сообщения
    Вы не можете редактировать свои сообщения
    Вы не можете удалять свои сообщения
    Вы не можете голосовать в опросах
    Вы не можете прикреплять файлы к сообщениям
    Вы не можете скачивать файлы