Нечто большее / Как в лучших домах / С шиком / A Touch of Class (Мелвин Фрэнк) [1973 г., мелодрама, комедия, DVDRip] MVO (НТВ) + Original + Sub (Rus)

Ответить на тему
 

lotto ®

Стаж: 7 лет 11 месяцев

Сообщений: 221

Симпатии: 409

Нечто большее / Как в лучших домах / С шиком / A Touch of Class
«A funny thing happened to George Segal and Glenda Jackson on the way to an affair»
-- Год выпуска: 1973
Страна: Великобритания
Жанр: мелодрама, комедия
Продолжительность: 01:49:16
Перевод: Профессиональный (многоголосый, закадровый)--Режиссер: Мелвин Фрэнк
В ролях: Джордж Сигал, Гленда Джексон, Пол Сорвино, К Кэллан, Сек Линдер, Майкл Элвин, Мэри Барклай, Надим Савалха, Иэн Томпсон, Ева Карпф--Описание: Лента о двусмысленных ситуациях, в которые попадает женатый англичанин Стивен Блэкбёрн, пытающийся беззаботно провести время вне семьи и его своеобразном романе-соперничестве с незамужней Викки Аллессио.-- --Качество: DVDRip
Формат: AVI
Видео кодек: XviD
Аудио кодек: AC3
Видео: 720x304, 1465 kbps avg, 23.976 fps
Аудио 1: 48 kHz, 2 ch, 192 kbps (русский, многоголосый)
Аудио 2: 48 kHz, 2 ch, 192 kbps (английский)
Субтитры: русские

MediaInfo

General
Complete name : \A Touch of Class.1973.DVDRip.avi
Format : AVI
Format/Info : Audio Video Interleave
Format profile : OpenDML
Format settings : rec
File size : 1.41 GiB
Duration : 1h 49mn
Overall bit rate : 1 846 Kbps
Movie name : A Touch of Class
Writing application : AVI-Mux GUI 1.17.8.3, Feb 16 201019:42:50
Video
ID : 0
Format : MPEG-4 Visual
Format profile : Advanced [email protected]
Format settings, BVOP : 4
Format settings, QPel : No
Format settings, GMC : No warppoints
Format settings, Matrix : Default (MPEG)
Codec ID : XVID
Codec ID/Hint : XviD
Duration : 1h 49mn
Bit rate : 1 465 Kbps
Width : 720 pixels
Height : 304 pixels
Display aspect ratio : 2.35:1
Frame rate : 23.976 fps
Color space : YUV
Chroma subsampling : 4:2:0
Bit depth : 8 bits
Scan type : Progressive
Compression mode : Lossy
Bits/(Pixel*Frame) : 0.279
Stream size : 1.12 GiB (79%)
Writing library : XviD 57
Audio #1
ID : 1
Format : AC-3
Format/Info : Audio Coding 3
Mode extension : CM (complete main)
Format settings, Endianness : Big
Codec ID : 2000
Duration : 1h 46mn
Bit rate mode : Constant
Bit rate : 192 Kbps
Channel(s) : 2 channels
Channel positions : Front: L R
Sampling rate : 48.0 KHz
Bit depth : 16 bits
Compression mode : Lossy
Stream size : 146 MiB (10%)
Alignment : Aligned on interleaves
Interleave, duration : 66 ms (1.58 video frames)
Interleave, preload duratio : 192 ms
Audio #2
ID : 2
Format : AC-3
Format/Info : Audio Coding 3
Mode extension : CM (complete main)
Format settings, Endianness : Big
Codec ID : 2000
Duration : 1h 46mn
Bit rate mode : Constant
Bit rate : 192 Kbps
Channel(s) : 2 channels
Channel(s)_Original : 1 channel
Channel positions : Front: C
Sampling rate : 48.0 KHz
Bit depth : 16 bits
Compression mode : Lossy
Stream size : 146 MiB (10%)
Alignment : Aligned on interleaves
Interleave, duration : 66 ms (1.58 video frames)
Interleave, preload duratio : 192 ms
Text
ID : 3
Stream size : 142 KiB (0%)
Title : A Touch of Class.1973.DVDRip

Скриншоты





Создавать темы 21-Янв-2015 09:59

[Профиль]  [ЛС] 

opium-gangster

Стаж: 4 года 8 месяцев

Сообщений: 78

Симпатии: 8

Это "Поли" гангстер из Славных парней)

Создавать темы 21-Янв-2015 15:36

[Профиль]  [ЛС] 
Показать сообщения:    
Ответить на тему

Текущее время: 17-Дек 13:10

Часовой пояс: UTC + 5



Вы не можете начинать темы
Вы не можете отвечать на сообщения
Вы не можете редактировать свои сообщения
Вы не можете удалять свои сообщения
Вы не можете голосовать в опросах
Вы не можете прикреплять файлы к сообщениям
Вы не можете скачивать файлы