Человек, который упал на Землю / The Man Who Fell to Earth (Николас Роуг) [1976 г., фантастика, драма, BDRip] MVO

Ответить на тему
 

lotto ®

Стаж: 7 лет 7 месяцев

Сообщений: 221

Симпатии: 409

Человек, который упал на Землю / The Man Who Fell to Earth
«You're only welcome if it's beneficial to us»
-- Год выпуска: 1976
Страна: Великобритания
Жанр: фантастика, драма
Продолжительность: 02:19:14
Перевод: Профессиональный (многоголосый, закадровый)--Режиссер: Николас Роуг
В ролях: Дэвид Боуи, Рип Торн, Кэнди Кларк, Бак Генри, Берни Кейси, Джексон Кэйн, Рик Риккардо, Тони Машия, Линда Хаттон, Хилари Холлэнд--Описание: Фильм об инопланетянине, который — после приводнения его космического корабля в каком-то лесном озере — остался жить среди людей, сохраняя некую свою изначальную двойственность: оболочка человеческого тела и душа пришельца.-- --Качество: BDRip
Формат: AVI
Видео кодек: XviD
Аудио кодек: AC3
Видео: 720x304, 1300 kbps, 23.976 fps
Аудио: 48 kHz, 2 ch, 192.00 kbps (русский, многоголосый)

MediaInfo

General
Complete name : \The Man Who Fell to Earth.1976.BDRip.avi
Format : AVI
Format/Info : Audio Video Interleave
File size : 1.46 GiB
Duration : 2h 19mn
Overall bit rate : 1 501 Kbps
Movie name : The Man Who Fell to Earth
Director : Nicolas Roeg
Writing application : VirtualDubMod 1.5.10.3 | www.virtualdub-fr.org || (build 2550/release)
Writing library : VirtualDubMod build 2550/release
Video
ID : 0
Format : MPEG-4 Visual
Format profile : Advanced Simple@L5
Format settings, BVOP : 1
Format settings, QPel : No
Format settings, GMC : No warppoints
Format settings, Matrix : Custom
Codec ID : XVID
Codec ID/Hint : XviD
Duration : 2h 19mn
Bit rate : 1 300 Kbps
Width : 720 pixels
Height : 304 pixels
Display aspect ratio : 2.35:1
Frame rate : 23.976 fps
Color space : YUV
Chroma subsampling : 4:2:0
Bit depth : 8 bits
Scan type : Progressive
Compression mode : Lossy
Bits/(Pixel*Frame) : 0.248
Stream size : 1.26 GiB (87%)
Writing library : XviD 63
Audio
ID : 1
Format : AC-3
Format/Info : Audio Coding 3
Mode extension : CM (complete main)
Format settings, Endianness : Big
Codec ID : 2000
Duration : 2h 19mn
Bit rate mode : Constant
Bit rate : 192 Kbps
Channel(s) : 2 channels
Channel positions : Front: L R
Sampling rate : 48.0 KHz
Bit depth : 16 bits
Compression mode : Lossy
Stream size : 191 MiB (13%)
Alignment : Split accross interleaves
Interleave, duration : 42 ms (1.00 video frame)
Interleave, preload duratio : 500 ms

Скриншоты




Создавать темы 22-Янв-2015 15:13

[Профиль]  [ЛС] 

opium-gangster

Стаж: 4 года 5 месяцев

Сообщений: 78

Симпатии: 8

Круто Девид Боуи в фильме)

Создавать темы 22-Янв-2015 17:20

[Профиль]  [ЛС] 

azzhkmv

Стаж: 4 года 6 месяцев

Сообщений: 26

Симпатии: 3

оу, спасибо!)

Создавать темы 23-Янв-2015 13:37

[Профиль]  [ЛС] 

Александр Гузов

Стаж: 4 года 7 месяцев

Сообщений: 112

Симпатии: 6

постер схож с "заводным апельсином", наверное один чел делал))) или скомуниздил;) вообще о чем фильм? ни разу не слышал

Создавать темы 29-Янв-2015 19:43

[Профиль]  [ЛС] 

lotto ®

Стаж: 7 лет 7 месяцев

Сообщений: 221

Симпатии: 409

915592постер схож с "заводным апельсином", наверное один чел делал))) или скомуниздил;) вообще о чем фильм? ни разу не слышал
Если вкратце, то исторический материализм победил и шагает семимильными шагами по планете.

Создавать темы 30-Янв-2015 12:28

[Профиль]  [ЛС] 
Показать сообщения:    
Ответить на тему

Текущее время: 22-Авг 19:51

Часовой пояс: UTC + 5



Вы не можете начинать темы
Вы не можете отвечать на сообщения
Вы не можете редактировать свои сообщения
Вы не можете удалять свои сообщения
Вы не можете голосовать в опросах
Вы не можете прикреплять файлы к сообщениям
Вы не можете скачивать файлы