Приключения кота в сапогах / The Adventures of Puss in Boots / Сезон: 1 / Серии: 1-5 из ? / Приключения кота в сапогах / The Adventures of Puss in Boots (Даг Лэнгдэйл) [2015 г., Мультфильм, комедия, приключения, семейный]

Ответить на тему
 

conner ®

Стаж: 4 года 7 месяцев

Сообщений: 56

Симпатии: 7

Приключения кота в сапогах / The Adventures of Puss in Boots
Год выпуска: 2015
Страна: США
Жанр: Мультфильм, комедия, приключения, семейный
Продолжительность: 00:23:05 серия
Перевод: Профессиональный (многоголосый, закадровый)
Режиссер: Даг Лэнгдэйл
В ролях: Эрик Бауза, Грэй ДеЛисл, Карла Хименес, Арибелла Макана, Джейма Мейс, Лорейн Ньюмен, Пол Ругг, Джошуа Раш, Фрэнк Уэлкер, Дэнни Трехо
Описание: Известный по серии мультфильмов "Шрек" Кот в Сапогах решает отправиться в зачарованный город Сан-Лоренцо. Город этот скрыт в мифических землях и невидим для внешнего мира. Он охраняется мощными заклинаниями, которые охраняют его жителей и их чудесное сокровище от всяческих посягательств. Но поскольку наш герой - это Кот в сапогах - не был бы он самим собой, если бы случайно не разрушил столь важные для города чары. И теперь он должен не только защитить Сан-Лоренцо от легионов захватчиков и грабителей, но и исправить свою ошибку, вернув волшебной земле её защитную магию. Кто на это способен? Конечно, только настоящий герой!
Качество: WEBRip
Формат: AVI
Видео кодек: XviD
Аудио кодек: MP3
Видео: XviD; 720x400, 23.976 fps, ~ 1500 kbps
Аудио: RUS; MP3, 48.0 KHz, 2 ch, 128 kbps
Аудио: ENG; MP3, 48.0 KHz, 2 ch, 128 kbps

Media Info

General
Complete name : D:\Dowloand\Приключения кота в сапогах_The Adventures of Puss in Boots\The.Adventures.of.Puss.in.Boots.s01e01.WEBRip.NewStudio.TV.avi
Format : AVI
Format/Info : Audio Video Interleave
File size : 300 MiB
Duration : 23mn 5s
Overall bit rate : 1 817 Kbps
Writing application : VirtualDubMod 1.5.10.2 (build 2540/release)
Writing library : VirtualDubMod build 2540/release
Video
ID : 0
Format : MPEG-4 Visual
Format profile : Advanced [email protected]
Format settings, BVOP : 2
Format settings, QPel : No
Format settings, GMC : No warppoints
Format settings, Matrix : Default (MPEG)

Codec ID : XVID
Codec ID/Hint : XviD
Duration : 23mn 5s
Bit rate : 1 547 Kbps
Width : 720 pixels
Height : 400 pixels
Display aspect ratio : 16:9
Frame rate : 23.976 fps
Color space : YUV
Chroma subsampling : 4:2:0
Bit depth : 8 bits
Scan type : Progressive
Compression mode : Lossy
Bits/(Pixel*Frame) : 0.224
Stream size : 255 MiB (85%)
Writing library : XviD 64
Audio #1
ID : 1
Format : MPEG Audio
Format version : Version 1
Format profile : Layer 3
Mode : Joint stereo
Mode extension : MS Stereo
Codec ID : 55
Codec ID/Hint : MP3
Duration : 23mn 5s
Bit rate mode : Constant
Bit rate : 128 Kbps
Channel(s) : 2 channels
Sampling rate : 48.0 KHz
Compression mode : Lossy
Stream size : 21.1 MiB (7%)
Alignment : Aligned on interleaves
Interleave, duration : 42 ms (1.00 video frame)
Interleave, preload duration : 504 ms
Audio #2
ID : 2
Format : MPEG Audio
Format version : Version 1
Format profile : Layer 3
Mode : Joint stereo
Codec ID : 55
Codec ID/Hint : MP3
Duration : 23mn 5s
Bit rate mode : Constant
Bit rate : 128 Kbps
Channel(s) : 2 channels
Sampling rate : 48.0 KHz
Compression mode : Lossy
Stream size : 21.1 MiB (7%)
Alignment : Aligned on interleaves
Interleave, duration : 42 ms (1.00 video frame)
Interleave, preload duration : 504 ms
Writing library : LAME3.99r
Encoding settings : -m j -V 4 -q 2 -lowpass 17 -b 128

Список Серий

S1 E1 - Тайный город (Hidden)
S1 E2 - Сфинкс (Sphinx)
S1 E3 - Братья (Brothers)
S1 E4 - Герцогиня(Duchess)

Раздача ведётся путём добавления новых серий

Когда раздача ведётся путём добавления новых серий, при каждом добавлении создётся новый торрент. Чтобы начать докачку новой серии, пользователям необходимо сделать следующее:
(1) остановить скачивание,
(2) удалить старый торрент у себя из клиента (старые серии удалять не надо),
(3) скачать новый торрент и запустить его у себя в клиенте вместо старого, при этом указать клиенту путь в старую папку, куда и должно происходить скачивание новых серий.
Ваш клиент при этом должен произвести хеширование (проверку) старой папки (если не производит сам - помогите ему сделать это), и будет докачивать только те серии, которых у вас ещё нет. Старые серии при этом не удаляются, а продолжают раздаваться!
Eсли вы уже удалили старые серии, то предотвратить повторную закачку старых серий можно, отжав галочку в соответсвующих местах при запуске нового торрента. По возможности, желательно не удалять старые серии как можно дольше, чтобы релизёр не столько продолжал раздавать старые серии, а смог сконцентрироваться на новых.

Скриншоты





Последний раз редактировалось: conner (2015-02-06 17:21), всего редактировалось 4 раз(а)

Создавать темы 22-Янв-2015 18:01

[Профиль]  [ЛС] 

emilsky

Стаж: 7 лет 3 месяца

Сообщений: 2237

Симпатии: 610

В шапке указали что 3 серии, в действительности 1 серия, потому обновил до 3х.
Думаю никто не будет против.
З.Ы. дальше продолжите обновлять сами!

Создавать темы 22-Янв-2015 18:13

[Профиль]  [ЛС] 

conner ®

Стаж: 4 года 7 месяцев

Сообщений: 56

Симпатии: 7

913501В шапке указали что 3 серии, в действительности 1 серия, потому обновил до 3х.
Думаю никто не будет против.
З.Ы. дальше продолжите обновлять сами!
окай всё проверили нет ошибок ?

Создавать темы 22-Янв-2015 18:16

[Профиль]  [ЛС] 

emilsky

Стаж: 7 лет 3 месяца

Сообщений: 2237

Симпатии: 610

окай всё проверили нет ошибок ?
все правильно

Создавать темы 22-Янв-2015 18:18

[Профиль]  [ЛС] 

conner ®

Стаж: 4 года 7 месяцев

Сообщений: 56

Симпатии: 7

Анкета
Ник на Трекере:conner
Провайдер, тарифный план:start1 в феврале life 1 или life 2 будет!

Скриншот на Конце месяца!

- Скорость скачивания с мировых сайтов:35-45 kb/s
- Скорость отдачи в сети TAS-IX:100-120
- Количество часов в сутки, когда вы можете раздавать:5-8

Создавать темы 22-Янв-2015 18:53

[Профиль]  [ЛС] 

emilsky

Стаж: 7 лет 3 месяца

Сообщений: 2237

Симпатии: 610

conner, вы куда написали? я же вам ссылку дал!
во-вторых с таким тарифным планом, вряд ли вы сможете удовлетворить нашим требованиям

Создавать темы 22-Янв-2015 18:54

[Профиль]  [ЛС] 

conner ®

Стаж: 4 года 7 месяцев

Сообщений: 56

Симпатии: 7

913520conner, вы куда написали? я же вам ссылку дал!
во-вторых с таким тарифным планом, вряд ли вы сможете удовлетворить нашим требованиям
Провайдер, тарифный план:start1 в феврале life 1 или life 2 будет!

Создавать темы 22-Янв-2015 19:13

[Профиль]  [ЛС] 

emilsky

Стаж: 7 лет 3 месяца

Сообщений: 2237

Симпатии: 610

4 серия!

Создавать темы 24-Янв-2015 19:39

[Профиль]  [ЛС] 

conner ®

Стаж: 4 года 7 месяцев

Сообщений: 56

Симпатии: 7

9141604 серия!
ну тебе огромное спасибо!!! помогаеш мне ты знаеш что у меня пока tarif star 1 респект!!

Создавать темы 24-Янв-2015 20:30

[Профиль]  [ЛС] 

conner ®

Стаж: 4 года 7 месяцев

Сообщений: 56

Симпатии: 7

ну мы быстрее работаем чем ххххх и ххххх там только что 1-2 серия tf tf tf

Создавать темы 24-Янв-2015 20:34

[Профиль]  [ЛС] 

emilsky

Стаж: 7 лет 3 месяца

Сообщений: 2237

Симпатии: 610

5 серия!

Создавать темы 26-Янв-2015 23:16

[Профиль]  [ЛС] 

erkinbek0607

Стаж: 3 года 9 месяцев

Сообщений: 75

Симпатии: 16

А не вышла другие серии ?

Создавать темы 11-Фев-2015 13:30

[Профиль]  [ЛС] 

fdjon

Стаж: 2 года 7 месяцев

Сообщений: 25

Симпатии: 3

Спасибо!!!

Создавать темы 11-Мар-2015 11:29

[Профиль]  [ЛС] 
Показать сообщения:    
Ответить на тему

Текущее время: 23-Окт 20:28

Часовой пояс: UTC + 5



Вы не можете начинать темы
Вы не можете отвечать на сообщения
Вы не можете редактировать свои сообщения
Вы не можете удалять свои сообщения
Вы не можете голосовать в опросах
Вы не можете прикреплять файлы к сообщениям
Вы не можете скачивать файлы