[Movie] Газгольдер [2014 г., Криминал, боевик, музыкальный экшн-комикс, DVDRip][mp4 640x360]

Ответить на тему
 

San_dieGo ®

Стаж: 4 года 10 месяцев

Сообщений: 155

Симпатии: 2

-Газгольдер- Год выпуска: 2014
Страна: Россия
Жанр: Криминал, боевик, музыкальный экшн-комикс
Продолжительность: 02:02:43
Перевод: Не требуется--В ролях: Баста, АК-47, Смоки Мо, Триагрутрика, QП, Тати, Словецкий, Груз
Режиссер: Иван Курский.
Сценарий: Иван Курский.
Продюсер: Иван Курский, Елена Быкова, Вадик QП
Оператор: Алексей Куприянов, Игорь Гринякин.
Композитор: Баста
Художник: Юлия Феофанова, Екатерина Кузнецова, Ярослав Митурич
Монтаж: Азат Григорян, Игорь Отдельнов, Иван Курский--Описание: У Басты и его друзей произошел серьезный конфликт с могущественным кланом силовиков. Ребятам предстоит найти выход из сложившейся ситуации, включив всю мощь творческой энергии.
--Качество: DVDRip
Формат: MP4
Видео кодек: AVC
Аудио кодек: AAC
Видео: MPEG4 Video (H264) 640x360 25fps 349kbps [V: h264 constrained baseline L3.0, yuv420p, 640x360, 349 kb/s]
Аудио: AAC 44100Hz stereo 96kbps [A: IsoMedia File Produced by Google, 5-11-2011 (aac, 44100 Hz, stereo, 96 kb/s)]

МИ

General
Complete name : E:\Видео\Фильмы\Газгольдер.mp4
Format : MPEG-4
Format profile : Base Media / Version 2
Codec ID : mp42
File size : 393 MiB
Duration : 2h 2mn
Overall bit rate mode : Variable
Overall bit rate : 448 Kbps
Encoded date : UTC 2014-12-09 18:41:25
Tagged date : UTC 2014-12-09 18:41:25
gsst : 0
gstd : 7362976
gssd : CwjHH1418218127355065
gshh : r5---sn-aigllney.googlevideo.com
Video
ID : 1
Format : AVC
Format/Info : Advanced Video Codec
Format profile : [email protected]
Format settings, CABAC : No
Format settings, ReFrames : 1 frame
Format settings, GOP : M=1, N=60
Codec ID : avc1
Codec ID/Info : Advanced Video Coding
Duration : 2h 2mn
Bit rate : 349 Kbps
Maximum bit rate : 1 769 Kbps
Width : 640 pixels
Height : 360 pixels
Display aspect ratio : 16:9
Frame rate mode : Constant
Frame rate : 25.000 fps
Color space : YUV
Chroma subsampling : 4:2:0
Bit depth : 8 bits
Scan type : Progressive
Bits/(Pixel*Frame) : 0.061
Stream size : 307 MiB (78%)
Tagged date : UTC 2014-12-09 18:42:00
Audio
ID : 2
Format : AAC
Format/Info : Advanced Audio Codec
Format profile : LC
Codec ID : 40
Duration : 2h 2mn
Bit rate mode : Variable
Bit rate : 96.0 Kbps
Maximum bit rate : 103 Kbps
Channel(s) : 2 channels
Channel positions : Front: L R
Sampling rate : 44.1 KHz
Compression mode : Lossy
Stream size : 84.3 MiB (21%)
Title : IsoMedia File Produced by Google, 5-11-2011
Encoded date : UTC 2014-12-09 18:41:40
Tagged date : UTC 2014-12-09 18:42:00

Скриншоты

Создавать темы 22-Янв-2015 21:15

[Профиль]  [ЛС] 

boombox_uz

Стаж: 3 года 9 месяцев

Сообщений: 7

Спасибо !!!

Создавать темы 22-Янв-2015 21:22

[Профиль]  [ЛС] 

San_dieGo ®

Стаж: 4 года 10 месяцев

Сообщений: 155

Симпатии: 2

Раздаю с 22:00 до 7:00-

Создавать темы 23-Янв-2015 07:28

[Профиль]  [ЛС] 

boombox_uz

Стаж: 3 года 9 месяцев

Сообщений: 7

АХА

Создавать темы 23-Янв-2015 09:27

[Профиль]  [ЛС] 
Показать сообщения:    
Ответить на тему

Текущее время: 23-Ноя 01:06

Часовой пояс: UTC + 5



Вы не можете начинать темы
Вы не можете отвечать на сообщения
Вы не можете редактировать свои сообщения
Вы не можете удалять свои сообщения
Вы не можете голосовать в опросах
Вы не можете прикреплять файлы к сообщениям
Вы не можете скачивать файлы