Кровавый четверг / Thursday (Скип Вудс / Skip Woods) [1998, США, боевик, триллер, драма, криминал, BDRip-AVC] AVO (Гоблин) + MVO (ДВД-Групп) + Sub (rus, eng) + original eng

Ответить на тему
 

opium-gangster ®

Стаж: 4 года 8 месяцев

Сообщений: 78

Симпатии: 8

Кровавый четверг/ Thursday Страна: США
Жанр: драма, криминал, боевик
Год выпуска: 1998
Продолжительность: 1:27:47-Перевод 1: Авторский (одноголосый закадровый) |Гоблин|
Перевод 2: Профессиональный (многоголосый закадровый) |ДВД-Групп|
Оригинальная аудиодорожка: английская
Cубтитры: английские, русские-Режиссер: Скип Вудс / Skip Woods-В ролях:-Томас Джейн, Аарон Экхарт, Паулина Поризкова, Джеймс ЛеГро, Пола Маршалл, Майкл Джитер, Гленн Пламмер, Микки Рурк, Люк Хари, Бари К. Уиллерфорд-Описание:-Бывший торговец наркотиками, прошедший через все круги ада, решает выйти на пенсию и забыть о своем темном прошлом. Переехав из Лос-Анджелеса в Хьюстон, он резко меняет свой имидж, и в глазах окружающих становится обыкновенным гражданином, которого трудно заподозрить в чем-либо криминальном. Однако, судьба готовит очередной, самый неожиданный сюрприз бывшему наркодилеру. В город приезжает его подельник с грузом героина. Компаньон и не думал забывать о своем партнере все то время, пока тот строил свою новую жизнь. Он предлагает ему последнюю сделку. За все однажды приходится платить и бывший наркоделец оказывается на волосок от смерти.-Качество видео: BDRip
Исходное видео: Blu-Ray disk (custom) |shtift|-Контейнер: MKV-Видео: AVC, ~3794 kbps, 1152x624 (1,85:1), 23.976 fps
Аудио: AC-3, 384 kbps, Dolby Digital, 3/2 (L,C,R,l,r) + LFE ch, 48 KHz |AVO_Гоблин|
Аудио: AC-3, 192 kbps, Dolby Digital, 2 ch, 48 KHz |MVO_ДВД-Групп|
Аудио: AC-3, 384 kbps, Dolby Digital, 3/2 (L,C,R,l,r) + LFE ch, 48 KHz |Original|
Формат субтитров: softsub (SRT)
Главы: есть-

MediaInfo

х264

x264 [info]: frame I:977 Avg QP:17.71 size: 99430
x264 [info]: frame P:24480 Avg QP:20.61 size: 33949
x264 [info]: frame B:100848 Avg QP:22.24 size: 15561
x264 [info]: consecutive B-frames: 1.7% 1.7% 7.1% 9.4% 14.0% 46.0% 7.5% 3.1% 2.9% 2.3% 2.0% 2.2%
x264 [info]: mb I I16..4: 4.8% 85.7% 9.6%
x264 [info]: mb P I16..4: 0.8% 9.3% 0.8% P16..4: 34.3% 40.2% 11.5% 0.0% 0.0% skip: 3.1%
x264 [info]: mb B I16..4: 0.0% 1.7% 0.1% B16..8: 43.0% 20.1% 3.1% direct: 6.4% skip:25.7% L0:47.0% L1:45.8% BI: 7.1%
x264 [info]: 8x8 transform intra:88.8% inter:65.0%
x264 [info]: direct mvs spatial:99.0% temporal:1.0%
x264 [info]: coded y,uvDC,uvAC intra: 94.8% 65.9% 33.0% inter: 36.0% 22.5% 1.2%
x264 [info]: i16 v,h,dc,p: 48% 11% 8% 33%
x264 [info]: i8 v,h,dc,ddl,ddr,vr,hd,vl,hu: 7% 6% 6% 11% 16% 15% 14% 12% 12%
x264 [info]: i4 v,h,dc,ddl,ddr,vr,hd,vl,hu: 12% 7% 3% 9% 16% 17% 13% 12% 11%
x264 [info]: i8c dc,h,v,p: 43% 23% 17% 17%
x264 [info]: Weighted P-Frames: Y:10.4% UV:1.5%
x264 [info]: ref P L0: 39.6% 10.2% 18.3% 7.5% 6.6% 4.8% 4.4% 2.3% 2.2% 1.8% 1.9% 0.4% 0.0%
x264 [info]: ref B L0: 61.5% 14.4% 8.2% 4.5% 3.5% 3.0% 2.3% 1.4% 0.8% 0.3%
x264 [info]: ref B L1: 89.2% 10.8%
x264 [info]: kb/s:3792.71
Формат : Matroska
Версия формата : Version 2
Размер файла : 2,92 Гбайт
Продолжительность : 1 ч. 27 м.
Общий поток : 4755 Кбит/сек
Название фильма : Кровавый четверг
Дата кодирования : UTC 2013-10-02 17:07:40
Программа кодирования : mkvmerge v5.5.0 ('Healer') built on Apr 24 2012 23:47:03
Библиотека кодирования : libebml v1.2.3 + libmatroska v1.3.0
Видео
Идентификатор : 1
Формат : AVC
Формат/Информация : Advanced Video Codec
Профиль формата : [email protected]
Параметр CABAC формата : Да
Параметр ReFrames формата : 11 кадров
Идентификатор кодека : V_MPEG4/ISO/AVC
Продолжительность : 1 ч. 27 м.
Битрейт : 3794 Кбит/сек
Ширина : 1152 пикселя
Высота : 624 пикселя
Соотношение сторон : 1,85:1
Частота кадров : 23,976 кадра/сек
Цветовое пространство : YUV
Субдискретизация насыщенности : 4:2:0
Битовая глубина : 8 бит
Тип развёртки : Прогрессивная
Бит/(Пиксели*Кадры) : 0.220
Размер потока : 2,27 Гбайт (78%)
Заголовок : Thursday
Библиотека кодирования : x264 core 130 r2273 b3065e6
Настройки программы : cabac=1 / ref=11 / deblock=1:-3:-2 / analyse=0x3:0x113 / me=umh / subme=11 / psy=1 / psy_rd=1.00:0.05 / mixed_ref=1 / me_range=64 / chroma_me=1 / trellis=2 / 8x8dct=1 / cqm=0 / deadzone=21,11 / fast_pskip=0 / chroma_qp_offset=-3 / threads=4 / lookahead_threads=1 / sliced_threads=0 / nr=0 / decimate=1 / interlaced=0 / bluray_compat=0 / constrained_intra=0 / bframes=11 / b_pyramid=2 / b_adapt=2 / b_bias=0 / direct=3 / weightb=1 / open_gop=0 / weightp=2 / keyint=240 / keyint_min=23 / scenecut=40 / intra_refresh=0 / rc_lookahead=50 / rc=2pass / mbtree=1 / bitrate=3794 / ratetol=1.0 / qcomp=0.60 / qpmin=0 / qpmax=69 / qpstep=4 / cplxblur=20.0 / qblur=0.5 / vbv_maxrate=50000 / vbv_bufsize=62500 / nal_hrd=none / ip_ratio=1.40 / aq=1:0.90
Язык : English
Default : Да
Forced : Нет
Аудио #1
Идентификатор : 2
Формат : AC-3
Формат/Информация : Audio Coding 3
Расширение режима : CM (complete main)
Параметр Endianness формата : Big
Идентификатор кодека : A_AC3
Продолжительность : 1 ч. 27 м.
Вид битрейта : Постоянный
Битрейт : 384 Кбит/сек
Каналы : 6 каналов
Расположение каналов : Front: L C R, Side: L R, LFE
Частота : 48,0 КГц
Битовая глубина : 16 бит
Метод сжатия : С потерями
Размер потока : 241 Мбайт (8%)
Заголовок : VO_Гоблин
Язык : Russian
Default : Да
Forced : Нет
Аудио #2
Идентификатор : 3
Формат : AC-3
Формат/Информация : Audio Coding 3
Расширение режима : CM (complete main)
Параметр Endianness формата : Big
Идентификатор кодека : A_AC3
Продолжительность : 1 ч. 27 м.
Вид битрейта : Постоянный
Битрейт : 192 Кбит/сек
Каналы : 2 канала
Расположение каналов : Front: L R
Частота : 48,0 КГц
Битовая глубина : 16 бит
Метод сжатия : С потерями
Размер потока : 121 Мбайт (4%)
Заголовок : MVO_ДВД_Групп
Язык : Russian
Default : Нет
Forced : Нет
Аудио #3
Идентификатор : 4
Формат : AC-3
Формат/Информация : Audio Coding 3
Расширение режима : CM (complete main)
Параметр Endianness формата : Big
Идентификатор кодека : A_AC3
Продолжительность : 1 ч. 27 м.
Вид битрейта : Постоянный
Битрейт : 384 Кбит/сек
Каналы : 6 каналов
Расположение каналов : Front: L C R, Side: L R, LFE
Частота : 48,0 КГц
Битовая глубина : 16 бит
Метод сжатия : С потерями
Размер потока : 241 Мбайт (8%)
Заголовок : Original
Язык : English
Default : Нет
Forced : Нет
Текст #1
Идентификатор : 5
Формат : UTF-8
Идентификатор кодека : S_TEXT/UTF8
Идентификатор кодека/Информация : UTF-8 Plain Text
Заголовок : ДВД_Групп
Язык : Russian
Default : Да
Forced : Нет
Текст #2
Идентификатор : 6
Формат : UTF-8
Идентификатор кодека : S_TEXT/UTF8
Идентификатор кодека/Информация : UTF-8 Plain Text
Заголовок : Гоблин_1
Язык : Russian
Default : Нет
Forced : Нет
Текст #3
Идентификатор : 7
Формат : UTF-8
Идентификатор кодека : S_TEXT/UTF8
Идентификатор кодека/Информация : UTF-8 Plain Text
Заголовок : Гоблин_2
Язык : Russian
Default : Нет
Forced : Нет
Текст #4
Идентификатор : 8
Формат : UTF-8
Идентификатор кодека : S_TEXT/UTF8
Идентификатор кодека/Информация : UTF-8 Plain Text
Язык : English
Default : Нет
Forced : Нет
Меню
00:00:00.000 : :Chapter 01
00:05:18.318 : :Chapter 02
00:12:42.970 : :Chapter 03
00:17:10.029 : :Chapter 04
00:22:43.362 : :Chapter 05
00:27:42.494 : :Chapter 06
00:33:41.019 : :Chapter 07
00:38:28.139 : :Chapter 08
00:43:30.316 : :Chapter 09
00:49:01.939 : :Chapter 10
00:55:13.310 : :Chapter 11
00:59:53.298 : :Chapter 12
01:05:45.232 : :Chapter 13
01:10:38.067 : :Chapter 14
01:17:07.998 : :Chapter 15
01:22:45.961 : :Chapter 16
01:27:47.720 : :Chapter 17

Скриншот с названием фильма

Скриншоты

Создавать темы 23-Янв-2015 19:52

[Профиль]  [ЛС] 

SpAcE

Стаж: 7 лет 3 месяца

Сообщений: 60

Классный фильм.

Создавать темы 23-Янв-2015 22:39

[Профиль]  [ЛС] 
Показать сообщения:    
Ответить на тему

Текущее время: 24-Ноя 05:27

Часовой пояс: UTC + 5



Вы не можете начинать темы
Вы не можете отвечать на сообщения
Вы не можете редактировать свои сообщения
Вы не можете удалять свои сообщения
Вы не можете голосовать в опросах
Вы не можете прикреплять файлы к сообщениям
Вы не можете скачивать файлы