Благодетель / The Rainmaker (Френсис Форд Коппола) [1997 г., триллер, драма, WEB-DL 720p] MVO + Dub + Original + Sub (Rus)

Ответить на тему
 

lotto ®

Стаж: 7 лет 10 месяцев

Сообщений: 221

Симпатии: 409

Благодетель / The Rainmaker
«They were totally unqualified to try the case of a lifetime... but every underdog has his day»
-- Год выпуска: 1997
Страна: США
Жанр: триллер, драма
Продолжительность: 02:15:31
Перевод: Профессиональный (полное дублирование)--Режиссер: Френсис Форд Коппола
В ролях: Мэтт Дэймон, Дэнни ДеВито, Клэр Дэйнс, Джон Войт, Дэнни Гловер, Мэри Кэй Плэйс, Тереза Райт, Джонни Витуорт, Рой Шайдер, Микки Рурк--Описание: Молодому юристу Руди Бэйлору кажется, что вот — вот настанет «Звездный час» и он станет знаменитым адвокатом со своей собственной фирмой, роскошной виллой, шикарными машинами и женщинами. Но это только мечта.
И ему приходится заниматься черной, неблагодарной работой на других. Все меняется в один день, когда он наталкивается на многомиллионную аферу в страховом бизнесе, разоблачив которую, он может осуществить все свои заветные мечты… если, конечно, сможет остаться живым.-- --Качество: WEB-DL
Формат: MKV
Видео кодек: H.264
Аудио кодек: AC3
Видео: 1280x544, 3933 kbps, 23.976 fps
Аудио 1: 48 KHz, 6 ch, 448 kbps (русский, многоголосый)
Аудио 2: 48 KHz, 2 ch, 192 kbps (русский, дублированный)
Аудио 3: 48 KHz, 6 ch, 448 kbps (английский)
Субтитры: русские

MediaInfo

General
Unique ID : 204567877247684612251573001097405454594 (0x99E6570D322C54A5AB37F9B4EC4ED902)
Complete name : \The Rainmaker.1997.WEB-DL.720p.mkv
Format : Matroska
Format version : Version 4 / Version 2
File size : 4.85 GiB
Duration : 2h 15mn
Overall bit rate : 5 123 Kbps
Movie name : The Rainmaker
Encoded date : UTC 2015-01-25 05:37:57
Writing application : mkvmerge v6.1.0 ('Old Devil') built on Mar 4 2013 09:10:42
Writing library : libebml v1.3.0 + libmatroska v1.4.0
Attachements : cover.jpg
ARTIST : Мэтт Дэймон, Дэнни ДеВито, Клэр Дэйнс, Джон Войт, Дэнни Гловер и др.
DIRECTOR : Френсис Форд Коппола
DATE_RELEASED : 1997
SUMMARY : for tas-ix.net
GENRE : триллер, драма
DESCRIPTION : ФФильм снят по мотивам романа «Золотой дождь» Джона Гришема (The Rainmaker, 1995).
SYNOPSIS : Молодому юристу Руди Бэйлору кажется, что вот — вот настанет «Звездный час» и он станет знаменитым адвокатом со своей собственной фирмой, роскошной виллой, шикарными машинами и женщинами. Но это только мечта. / / И ему приходится заниматься черной, неблагодарной работой на других. Все меняется в один день, когда он наталкивается на многомиллионную аферу в страховом бизнесе, разоблачив которую, он может осуществить все свои заветные мечты… если, конечно, сможет остаться живым.
Video
ID : 1
Format : AVC
Format/Info : Advanced Video Codec
Format profile : [email protected]
Format settings, CABAC : No
Format settings, ReFrames : 2 frames
Codec ID : V_MPEG4/ISO/AVC
Duration : 2h 15mn
Bit rate : 3 933 Kbps
Width : 1 280 pixels
Height : 544 pixels
Display aspect ratio : 2.35:1
Frame rate mode : Constant
Frame rate : 23.976 fps
Color space : YUV
Chroma subsampling : 4:2:0
Bit depth : 8 bits
Scan type : Progressive
Bits/(Pixel*Frame) : 0.236
Stream size : 3.72 GiB (77%)
Language : English
Default : Yes
Forced : No
Color primaries : BT.709
Transfer characteristics : BT.709
Matrix coefficients : BT.709
Color range : Limited
Audio #1
ID : 2
Format : AC-3
Format/Info : Audio Coding 3
Mode extension : CM (complete main)
Format settings, Endianness : Big
Codec ID : A_AC3
Duration : 2h 15mn
Bit rate mode : Constant
Bit rate : 448 Kbps
Channel(s) : 6 channels
Channel positions : Front: L C R, Side: L R, LFE
Sampling rate : 48.0 KHz
Bit depth : 16 bits
Compression mode : Lossy
Stream size : 434 MiB (9%)
Title : MVO 48 KHz 6ch 448 kbps
Language : Russian
Default : Yes
Forced : No
Audio #2
ID : 3
Format : AC-3
Format/Info : Audio Coding 3
Mode extension : CM (complete main)
Format settings, Endianness : Big
Codec ID : A_AC3
Duration : 2h 15mn
Bit rate mode : Constant
Bit rate : 192 Kbps
Channel(s) : 2 channels
Channel positions : Front: L R
Sampling rate : 48.0 KHz
Bit depth : 16 bits
Compression mode : Lossy
Stream size : 186 MiB (4%)
Title : Dub VHS 48 KHz 2 ch 192 kbps
Language : Russian
Default : No
Forced : No
Audio #3
ID : 4
Format : AC-3
Format/Info : Audio Coding 3
Mode extension : CM (complete main)
Format settings, Endianness : Big
Codec ID : A_AC3
Duration : 2h 15mn
Bit rate mode : Constant
Bit rate : 448 Kbps
Channel(s) : 6 channels
Channel positions : Front: L C R, Side: L R, LFE
Sampling rate : 48.0 KHz
Bit depth : 16 bits
Compression mode : Lossy
Stream size : 434 MiB (9%)
Title : 48 KHz 6 ch 448 kbps
Language : English
Default : No
Forced : No
Text
ID : 5
Format : UTF-8
Codec ID : S_TEXT/UTF8
Codec ID/Info : UTF-8 Plain Text
Title : R5
Language : Russian
Default : No
Forced : No
Menu
00:00:00.000 : en:Rudy Baylor
00:01:58.000 : en:Bruiser Stone & Assoc.
00:07:30.000 : en:Donny Ray Black
00:12:13.000 : en:Miss Birdie's Will
00:15:36.000 : en:Ambulance Chasing
00:19:40.000 : en:Kelly Riker
00:32:13.000 : en:The Birdsongs
00:34:20.000 : en:Personally Involved
00:36:46.000 : en:"Let's Bolt"
00:40:48.000 : en:Sworn In By A Fool
00:44:19.000 : en:An Offer To Settle
00:49:11.000 : en:Judge Tyrone Kipler
00:53:22.000 : en:Donny Ray's Deposition
00:57:30.000 : en:I Just Wanted To See You
00:59:57.000 : en:Great Benefit
01:05:19.000 : en:Kelly Leaves Cliff
01:07:18.000 : en:A Wrongful Death
01:09:23.000 : en:Looking For Bugs
01:17:42.000 : en:Divorce Papers
01:18:28.000 : en:Dot Black Testifies
01:26:40.000 : en:"Give Me The Bat."
01:34:05.000 : en:Everett Lufkin
01:36:50.000 : en:Jackie Lemancyzk
01:49:05.000 : en:Desoto Vs. Club Ruby
01:51:34.000 : en:Deny All Claims
01:59:13.000 : en:Closing Arguments
02:05:26.000 : en:Everybody Loses
02:09:06.000 : en:Credits

Скриншоты





Создавать темы 25-Янв-2015 11:04

[Профиль]  [ЛС] 
Показать сообщения:    
Ответить на тему

Текущее время: 18-Ноя 00:33

Часовой пояс: UTC + 5



Вы не можете начинать темы
Вы не можете отвечать на сообщения
Вы не можете редактировать свои сообщения
Вы не можете удалять свои сообщения
Вы не можете голосовать в опросах
Вы не можете прикреплять файлы к сообщениям
Вы не можете скачивать файлы