Майерлинг / Mayerling (Теренс Янг) [1968 г., Драма, DVDRip]

Ответить на тему
 

Sinatro ®

Стаж: 5 лет 7 месяцев

Сообщений: 117

Симпатии: 2

Майерлинг / Mayerling
Год выпуска: 1968
Страна: Великобритания, Франция
Жанр: Драма
Продолжительность: 2ч 9мин
Перевод: Профессиональный (полное дублирование)
Режиссер: Теренс Янг
В ролях: Омар Шариф, Катрин Денев, Джеймс Мэйсон, Ава Гарднер, Джеймс Робинсон Джастис, Женевьев Паж...
Описание: Наследник австро-венгерского трона кронпринц Рудольф — яркая и сложная личность. Женщины, балы, приемы — за беспечным фасадом кроется тяжкий груз ответственности и неопределенности. В любой момент он может стать императором, а его судьба принадлежит Империи. Рудольф несчастлив в браке.
Многие дамы хотели бы оказаться рядом с ним, но только баронесса Вечера смогла зажечь в нем настоящее чувство. Их яркая, сумасшедшая любовь была заранее обречена. Влюбленные ушли из жизни в мрачном замке Майерлинг.
Качество: DVDRip
Формат: AVI
Видео кодек: XviD
Аудио кодек: MP3
Видео: Xvid 704x288 25fps
Аудио: MP3 48000Hz stereo 128kbps

MI

General
Complete name : Majerling.avi
Format : AVI
Format/Info : Audio Video Interleave
File size : 1.34 GiB
Duration : 2h 9mn
Overall bit rate : 1 479 Kbps
Writing application : VirtualDubMod 1.5.10.2 (build 2540/release)
Writing library : VirtualDub build 28312/release
Video
ID : 0
Format : MPEG-4 Visual
Format profile : Advanced [email protected]
Format settings, BVOP : Yes
Format settings, QPel : No
Format settings, GMC : No warppoints
Format settings, Matrix : Custom
Codec ID : XVID
Codec ID/Hint : XviD
Duration : 2h 9mn
Bit rate : 1 342 Kbps
Width : 704 pixels
Height : 288 pixels
Display aspect ratio : 2.40:1
Frame rate : 25.000 fps
Color space : YUV
Chroma subsampling : 4:2:0
Bit depth : 8 bits
Scan type : Progressive
Compression mode : Lossy
Bits/(Pixel*Frame) : 0.265
Stream size : 1.22 GiB (91%)
Writing library : XviD 1.0.3 (UTC 2004-12-20)
Audio
ID : 1
Format : MPEG Audio
Format version : Version 1
Format profile : Layer 3
Mode : Joint stereo
Mode extension : MS Stereo
Codec ID : 55
Codec ID/Hint : MP3
Duration : 2h 9mn
Bit rate mode : Constant
Bit rate : 128 Kbps
Channel(s) : 2 channels
Sampling rate : 48.0 KHz
Compression mode : Lossy
Stream size : 119 MiB (9%)
Alignment : Split accross interleaves
Interleave, duration : 40 ms (1.00 video frame)
Interleave, preload duration : 500 ms
Writing library : LAME3.96.1

Скриншоты



Создавать темы 25-Янв-2015 20:32

[Профиль]  [ЛС] 

Mixer City

Стаж: 6 лет 7 месяцев

Сообщений: 754

Симпатии: 63

Sinatro, исправил многое за вас, исключительно из ценности фильма, но в след. раз внимательнее: MI должна была быть под спойлером, скриншоты видимы!

Создавать темы 26-Янв-2015 02:12

[Профиль]  [ЛС] 

Sinatro ®

Стаж: 5 лет 7 месяцев

Сообщений: 117

Симпатии: 2

Mixer City, Это мой первый релиз поэтому старался как мог!)

Создавать темы 26-Янв-2015 08:06

[Профиль]  [ЛС] 
Показать сообщения:    
Ответить на тему

Текущее время: 21-Авг 13:31

Часовой пояс: UTC + 5



Вы не можете начинать темы
Вы не можете отвечать на сообщения
Вы не можете редактировать свои сообщения
Вы не можете удалять свои сообщения
Вы не можете голосовать в опросах
Вы не можете прикреплять файлы к сообщениям
Вы не можете скачивать файлы