Принц города / Prince of the City (Сидни Люмет) [1981 г., триллер, драма, криминал, WEB-DL 720p] DVO + AVO (Михалев) + Original + Sub (Eng)

Ответить на тему
 

lotto ®

Стаж: 7 лет 7 месяцев

Сообщений: 221

Симпатии: 409

Принц города / Prince of the City
«A cop is turning. Nobody's safe»
-- Год выпуска: 1981
Страна: США
Жанр: триллер, драма, криминал
Продолжительность: 02:47:26
Перевод: Профессиональный (двухголосый)--Режиссер: Сидни Люмет
В ролях: Трит Уильямс, Джерри Орбак, Ричард Форонджи, Дон Биллет, Кенни Марино, Кармине Кариди, Тони Пейдж, Норман Паркер, Пол Роублинг, Боб Бэлабан--Описание: Детектив Дэнни Чиелло из специального отряда по борьбе с наркотиками нью-йоркского департамента полиции — один из тех, кого называют Принцем Города.
Он — неприкасаемый элитный коп, профессионал, которому, как говорится, «море по колено». Дэнни знает о том, что многие из его коллег берут деньги, и решает сделать то, что обязан сделать любой честный служитель закона: рассказать правду. Но для этого ему придется предать своих друзей и напарников…-- --Качество: WEB-DL
Формат: MKV
Видео кодек: H.264
Аудио кодек: AC3
Видео: 1274x720, 4011 kbps, 23.975 fps
Аудио 1: 48 KHz 2 ch 192 kbps (русский, авторский) Михалев
Аудио 2: 48 KHz 2 ch 192 kbps (русский, двухголосый)
Аудио 3: 48 KHz 2 ch 192 kbps (английский)
Субтитры: английские

MediaInfo

General
Unique ID : 183024352334489027645945096370260794641 (0x89B135442943CB6BAE926F7EA6BBDD11)
Complete name : \Prince of the City.1981.720p.WEB-DL.mkv
Format : Matroska
Format version : Version 4 / Version 2
File size : 5.47 GiB
Duration : 2h 47mn
Overall bit rate : 4 680 Kbps
Movie name : Prince of the City
Encoded date : UTC 2015-01-27 08:17:03
Writing application : mkvmerge v6.1.0 ('Old Devil') built on Mar 4 2013 09:10:42
Writing library : libebml v1.3.0 + libmatroska v1.4.0
Attachements : cover.jpg
ARTIST : Трит Уильямс, Джерри Орбак, Ричард Форонджи, Дон Биллет, Кенни Марино и др.
DIRECTOR : Кенни Марино
DATE_RELEASED : 1981
SUMMARY : for tas-ix.net
GENRE : триллер, драма, криминал
DESCRIPTION : «Принц города» — американский триллер режиссёра Сидни Люмета по одноимённому роману Роберта Дейли.
SYNOPSIS : Детектив Дэнни Чиелло из специального отряда по борьбе с наркотиками нью-йоркского департамента полиции — один из тех, кого называют Принцем Города. / / Он — неприкасаемый элитный коп, профессионал, которому, как говорится, «море по колено». Дэнни знает о том, что многие из его коллег берут деньги, и решает сделать то, что обязан сделать любой честный служитель закона: рассказать правду. Но для этого ему придется предать своих друзей и напарников…
Video
ID : 1
Format : AVC
Format/Info : Advanced Video Codec
Format profile : [email protected]
Format settings, CABAC : No
Format settings, ReFrames : 2 frames
Codec ID : V_MPEG4/ISO/AVC
Duration : 2h 47mn
Bit rate : 4 011 Kbps
Width : 1 274 pixels
Height : 720 pixels
Display aspect ratio : 16:9
Frame rate mode : Constant
Frame rate : 23.976 fps
Color space : YUV
Chroma subsampling : 4:2:0
Bit depth : 8 bits
Scan type : Progressive
Bits/(Pixel*Frame) : 0.182
Stream size : 4.69 GiB (86%)
Title : Prince.of.the.City.1981
Language : English
Default : No
Forced : No
Color primaries : BT.709
Transfer characteristics : BT.709
Matrix coefficients : BT.709
Color range : Limited
Audio #1
ID : 2
Format : AC-3
Format/Info : Audio Coding 3
Mode extension : CM (complete main)
Format settings, Endianness : Big
Codec ID : A_AC3
Duration : 2h 47mn
Bit rate mode : Constant
Bit rate : 192 Kbps
Channel(s) : 2 channels
Channel positions : Front: L R
Sampling rate : 48.0 KHz
Bit depth : 16 bits
Compression mode : Lossy
Stream size : 230 MiB (4%)
Title : AVO Михалёв 48 KHz 2ch 192 kbps
Language : Russian
Default : Yes
Forced : No
Audio #2
ID : 3
Format : AC-3
Format/Info : Audio Coding 3
Mode extension : CM (complete main)
Format settings, Endianness : Big
Codec ID : A_AC3
Duration : 2h 47mn
Bit rate mode : Constant
Bit rate : 192 Kbps
Channel(s) : 2 channels
Channel positions : Front: L R
Sampling rate : 48.0 KHz
Bit depth : 16 bits
Compression mode : Lossy
Stream size : 230 MiB (4%)
Title : DVO 48 KHz 2ch 192 kbps
Language : Russian
Default : No
Forced : No
Audio #3
ID : 4
Format : AC-3
Format/Info : Audio Coding 3
Mode extension : CM (complete main)
Format settings, Endianness : Big
Codec ID : A_AC3
Duration : 2h 47mn
Bit rate mode : Constant
Bit rate : 192 Kbps
Channel(s) : 2 channels
Channel positions : Front: L R
Sampling rate : 48.0 KHz
Bit depth : 16 bits
Compression mode : Lossy
Stream size : 230 MiB (4%)
Title : Original 48 Khz 2ch 192 kbps
Language : English
Default : No
Forced : No
Text
ID : 5
Format : UTF-8
Codec ID : S_TEXT/UTF8
Codec ID/Info : UTF-8 Plain Text
Title : (* UTF-8)
Language : English
Default : No
Forced : No
Menu
00:00:00.000 : en:The Siu
00:03:31.000 : en:3-O'clock Bust
00:07:29.000 : en:Chase Commission
00:10:30.000 : en:Raging Ronnie
00:15:02.000 : en:Sick Stoolie
00:22:30.000 : en:Danny's Breakdown
00:27:54.000 : en:My Action
00:30:48.000 : en:Breakup
00:32:24.000 : en:Danny's Three Things
00:37:29.000 : en:Wired
00:44:41.000 : en:Ambivalent Zeal
00:50:44.000 : en:Case Against Blomberg
00:53:10.000 : en:Be Sure He's A Rat
00:56:34.000 : en:Your Partners And Me
01:00:40.000 : en:On The Federal Side
01:06:14.000 : en:In A Jam
01:09:57.000 : en:Never My Backup Again
01:13:02.000 : en:Use A Public Phone
01:15:42.000 : en:Gino Mascone, Whore And Thief
01:18:52.000 : en:Take Me In
01:21:27.000 : en:Danny's Confession
01:26:13.000 : en:Cabin In The Catskills
01:30:32.000 : en:First In Prison
01:33:20.000 : en:One Of Us
01:38:07.000 : en:Anybody Can Be Hit
01:43:00.000 : en:On The Stand
01:45:14.000 : en:King's Deposition
01:50:36.000 : en:Death And Dislocation
01:55:02.000 : en:Detecting Lies
01:59:15.000 : en:Alvarez On The System
02:02:42.000 : en:Nobody But Each Other
02:05:15.000 : en:Wanting To Admit Guilt
02:08:55.000 : en:Gus: Get Me For Assault
02:12:00.000 : en:Danny's Betrayal
02:18:07.000 : en:Choke On My Name
02:20:02.000 : en:Calling Old Friends
02:24:55.000 : en:Self Inflicted
02:30:10.000 : en:Gus Stays Out
02:33:08.000 : en:Debating Danny's Fate
02:37:17.000 : en:Some Area Of Penance
02:42:30.000 : en:The Detective Ciello
02:44:45.000 : en:End Credits

Скриншоты





Создавать темы 27-Янв-2015 16:00

[Профиль]  [ЛС] 

iwaiv

Стаж: 3 года 6 месяцев

Сообщений: 11

Симпатии: 3

Спасибо, посмотрим!

Создавать темы 27-Янв-2015 20:44

[Профиль]  [ЛС] 
Показать сообщения:    
Ответить на тему

Текущее время: 21-Авг 02:16

Часовой пояс: UTC + 5



Вы не можете начинать темы
Вы не можете отвечать на сообщения
Вы не можете редактировать свои сообщения
Вы не можете удалять свои сообщения
Вы не можете голосовать в опросах
Вы не можете прикреплять файлы к сообщениям
Вы не можете скачивать файлы