И как Икар / I... comme Icare (Анри Верней) [1979 г., триллер, DVDRip] MVO + Original

Ответить на тему
 

lotto ®

Стаж: 7 лет 9 месяцев

Сообщений: 221

Симпатии: 409

И как Икар / I... comme Icare-- Год выпуска: 1979
Страна: Франция
Жанр: триллер
Продолжительность: 02:03:06
Перевод: Профессиональный (многоголосый, закадровый)--Режиссер: Анри Верней
В ролях: Ив Монтан, Мишель Эчеверри, Пьер Вернье, Роже Планшон, Жак Дени, Жак Серей, Жан-Франсуа Гарро, Мишель Альбертини, Жорж Беллер, Ролан Бланш--Описание: Убит президент Жари, но комиссия по расследованию заключает, что это самоубийство. С такой версией не согласен прокурор Вольнэ. Он обнаруживает, что все основные свидетели убиты, более того, убит и сам стрелявший. Прокурор приходит к выводу, что убийство — часть некоего секретного плана под названием «И как Икар».-- --Качество: DVDRip
Формат: AVI
Видео кодек: XviD
Аудио кодек: AC3
Видео: 704x416, 1727 kbps, 25 fps
Аудио 1: 48 kHz, 6 ch, 448 kbps (русский, многоголосый)
Аудио 2: 48 kHz, 2 ch, 192 kbps (французский)

MediaInfo

General
Complete name : \I.kak.Ikar.1979.XviD.DVDRip.GoodVideo.avi
Format : AVI
Format/Info : Audio Video Interleave
Format profile : OpenDML
File size : 2.05 GiB
Duration : 2h 3mn
Overall bit rate : 2 386 Kbps
Writing application : VirtualDubMod 1.5.10.2 (build 2540/release)
Writing library : VirtualDubMod build 2540/release
Video
ID : 0
Format : MPEG-4 Visual
Format profile : Advanced [email protected]
Format settings, BVOP : 2
Format settings, QPel : No
Format settings, GMC : No warppoints
Format settings, Matrix : Default (H.263)
Muxing mode : Packed bitstream
Codec ID : XVID
Codec ID/Hint : XviD
Duration : 2h 3mn
Bit rate : 1 727 Kbps
Width : 704 pixels
Height : 416 pixels
Display aspect ratio : 1.692
Frame rate : 25.000 fps
Color space : YUV
Chroma subsampling : 4:2:0
Bit depth : 8 bits
Scan type : Progressive
Compression mode : Lossy
Bits/(Pixel*Frame) : 0.236
Stream size : 1.49 GiB (72%)
Writing library : XviD 1.0.3 (UTC 2004-12-20)
Audio #1
ID : 1
Format : AC-3
Format/Info : Audio Coding 3
Mode extension : CM (complete main)
Format settings, Endianness : Big
Codec ID : 2000
Duration : 2h 3mn
Bit rate mode : Constant
Bit rate : 448 Kbps
Channel(s) : 6 channels
Channel positions : Front: L C R, Side: L R, LFE
Sampling rate : 48.0 KHz
Bit depth : 16 bits
Compression mode : Lossy
Stream size : 394 MiB (19%)
Alignment : Split accross interleaves
Interleave, duration : 40 ms (1.00 video frame)
Interleave, preload duration : 500 ms
Audio #2
ID : 2
Format : AC-3
Format/Info : Audio Coding 3
Mode extension : CM (complete main)
Format settings, Endianness : Big
Codec ID : 2000
Duration : 2h 3mn
Bit rate mode : Constant
Bit rate : 192 Kbps
Channel(s) : 2 channels
Channel positions : Front: L R
Sampling rate : 48.0 KHz
Bit depth : 16 bits
Compression mode : Lossy
Stream size : 169 MiB (8%)
Alignment : Split accross interleaves
Interleave, duration : 40 ms (1.00 video frame)
Interleave, preload duration : 500 ms

Скриншоты





Создавать темы 29-Янв-2015 12:06

[Профиль]  [ЛС] 
Показать сообщения:    
Ответить на тему

Текущее время: 18-Окт 10:54

Часовой пояс: UTC + 5



Вы не можете начинать темы
Вы не можете отвечать на сообщения
Вы не можете редактировать свои сообщения
Вы не можете удалять свои сообщения
Вы не можете голосовать в опросах
Вы не можете прикреплять файлы к сообщениям
Вы не можете скачивать файлы