Угроза / La Menace (Ален Корно) [1977 г., боевик, триллер, криминал] MVO

Ответить на тему
 

lotto ®

Стаж: 7 лет 11 месяцев

Сообщений: 221

Симпатии: 409

Угроза / La Menace-- Год выпуска: 1977
Страна: Франция, Канада
Жанр: боевик, триллер, криминал
Продолжительность: 01:51:39
Перевод: Профессиональный (многоголосый, закадровый)--Режиссер: Ален Корно
В ролях: Ив Монтан, Мари Дюбуа, Кароль Лор, Жан-Франсуа Бальме, Марк Эйро, Роже Мюни, Жак Риспаль, Мишель Руль, Габриэль Гаскон--Описание: Потрясающая криминальная драма с элементами триллера. Давний роман владелицы большой транспортной компании Доминики Монлор и её управляющего Анри Савена закончился ничем. У Анри вспыхнула взаимная страсть с молодой девушкой Жюли Моне. Их отношения становятся все глубже и серьезнее с каждым днем. Однако бизнес-леди не желает мириться с потерей человека, которого она все так же страстно любит, и она решает использовать в борьбе за свое счастье то, чем она привыкла активно оперировать, и что у неё в избытке – деньги. А дальше мы погружаемся в калейдоскоп противоречивых и совершенно непредсказуемых событий, которые захватывают целиком и не дают перевести дыхание. Острый и насыщенный сюжет и умопомрачительная развязка.-- --Качество: DVDRip
Формат: AVI
Видео кодек: XviD
Аудио кодек: AC3
Видео: 672x400, 1669 kbps, 25 fps
Аудио: 48 kHz, 2 ch, 192.00 kbps (русский, многоголосый)

MediaInfo

General
Complete name : \ugroza_1.46_[torrents.ru]_by_bm11.avi
Format : AVI
Format/Info : Audio Video Interleave
File size : 1.46 GiB
Duration : 1h 51mn
Overall bit rate : 1 870 Kbps
Director : bm11
Writing application : VirtualDubMod 1.5.10.2 (build 2540/release)
Video
ID : 0
Format : MPEG-4 Visual
Format profile : Advanced [email protected]
Format settings, BVOP : 2
Format settings, QPel : No
Format settings, GMC : No warppoints
Format settings, Matrix : Custom
Codec ID : XVID
Codec ID/Hint : XviD
Duration : 1h 51mn
Bit rate : 1 669 Kbps
Width : 672 pixels
Height : 400 pixels
Display aspect ratio : 1.680
Frame rate : 25.000 fps
Color space : YUV
Chroma subsampling : 4:2:0
Bit depth : 8 bits
Scan type : Progressive
Compression mode : Lossy
Bits/(Pixel*Frame) : 0.248
Stream size : 1.30 GiB (89%)
Writing library : XviD 65
Audio
ID : 1
Format : AC-3
Format/Info : Audio Coding 3
Mode extension : CM (complete main)
Format settings, Endianness : Big
Codec ID : 2000
Duration : 1h 51mn
Bit rate mode : Constant
Bit rate : 192 Kbps
Channel(s) : 2 channels
Channel positions : Front: L R
Sampling rate : 48.0 KHz
Bit depth : 16 bits
Compression mode : Lossy
Stream size : 153 MiB (10%)
Alignment : Split accross interleaves
Interleave, duration : 40 ms (1.00 video frame)
Interleave, preload duratio : 500 ms

Скриншоты





Создавать темы 29-Янв-2015 19:21

[Профиль]  [ЛС] 
Показать сообщения:    
Ответить на тему

Текущее время: 13-Дек 19:54

Часовой пояс: UTC + 5



Вы не можете начинать темы
Вы не можете отвечать на сообщения
Вы не можете редактировать свои сообщения
Вы не можете удалять свои сообщения
Вы не можете голосовать в опросах
Вы не можете прикреплять файлы к сообщениям
Вы не можете скачивать файлы