Небесный суд. Продолжение (мини-сериал) (Алена Званцова) (1-4 из 4) [2014 г., драма, фэнтези, SATRip]

Ответить на тему
 

igor1968 ®

Стаж: 5 лет 7 месяцев

Сообщений: 366

Симпатии: 197

Небесный суд. Продолжение (мини-сериал) Год выпуска: 2014
Жанр: драма, фэнтези
Продолжительность: ~00:48:00 серия
Алена Званцова
Константин Хабенский, Михаил Пореченков, Ингеборга Дапкунайте, Анна Михалкова, Евгения Добровольская, Никита Зверев, Дмитрий Марьянов, Марина Дуксова, Юрий Ицков, Юрий Ермаков, Яна Сексте, Сергей Бызгу, Сергей Барковский, Артур Ваха, Олег Мазуров, Борис Хвошнянский, Игорь Гаспарян, Альберт Афонин, Даниэла Стоянович, Дмитрий Ермакович, Юрий Орлов, Виталий Коваленко, Ксения Каталымова, Леонид Алимов, Константин Воробьёв

Во втором сезоне «Небесного суда» Участок, на котором работают наши герои, подвергнется суровой проверке. Верховная Инквизиция должна аттестовать прокуроров и адвокатов, а набравшего минимальное количество баллов — отправить в Сектор Раздумий. Стоит ли говорить, что независимые и ироничные Андрей и Веня умудряются мгновенно настроить против себя Верховного проверяющего?- - -Качество: SATRip
Формат: AVI
Видео кодек: XviD
Аудио кодек: MPEG Audio
Видео: 704x416 (1.69:1), 25 fps, XviD MPEG-4 ~1795 kbps avg, 0.25 bit/pixel
Аудио: 48 kHz, MPEG Layer 3, 2 ch, ~128.00 kbps avg-
-

MediaInfo

General
Complete name : Nebesniy.sud.2\Nebesniy.sud.2.1.avi
Format : AVI
Format/Info : Audio Video Interleave
File size : 661 MiB
Duration : 47mn 50s
Overall bit rate : 1 933 Kbps
Writing application : VirtualDubMod 1.5.10.2 (build 2540/release)
Writing library : VirtualDub build 29808/release
Video
ID : 0
Format : MPEG-4 Visual
Format profile : Advanced [email protected]
Format settings, BVOP : 2
Format settings, QPel : No
Format settings, GMC : No warppoints
Format settings, Matrix : Default (H.263)
Muxing mode : Packed bitstream
Codec ID : XVID
Codec ID/Hint : XviD
Duration : 47mn 50s
Bit rate : 1 795 Kbps
Width : 704 pixels
Height : 416 pixels
Display aspect ratio : 1.692
Frame rate : 25.000 fps
Color space : YUV
Chroma subsampling : 4:2:0
Bit depth : 8 bits
Scan type : Progressive
Compression mode : Lossy
Bits/(Pixel*Frame) : 0.245
Stream size : 614 MiB (93%)
Writing library : XviD 66
Audio
ID : 1
Format : MPEG Audio
Format version : Version 1
Format profile : Layer 3
Mode : Joint stereo
Codec ID : 55
Codec ID/Hint : MP3
Duration : 47mn 50s
Bit rate mode : Constant
Bit rate : 128 Kbps
Channel(s) : 2 channels
Sampling rate : 48.0 KHz
Compression mode : Lossy
Stream size : 43.8 MiB (7%)
Alignment : Aligned on interleaves
Interleave, duration : 40 ms (1.00 video frame)
Interleave, preload duration : 504 ms
- -

Скриншоты








Создавать темы 30-Янв-2015 20:08

[Профиль]  [ЛС] 

Mixer City

Стаж: 6 лет 9 месяцев

Сообщений: 754

Симпатии: 63

Оч хорошая вещица.

Создавать темы 30-Янв-2015 20:16

[Профиль]  [ЛС] 
Показать сообщения:    
Ответить на тему

Текущее время: 19-Окт 14:11

Часовой пояс: UTC + 5



Вы не можете начинать темы
Вы не можете отвечать на сообщения
Вы не можете редактировать свои сообщения
Вы не можете удалять свои сообщения
Вы не можете голосовать в опросах
Вы не можете прикреплять файлы к сообщениям
Вы не можете скачивать файлы