(Hard Rock / Melodic Rock) Great White - Great Zeppelin (A Tribute To Led Zeppelin) - 1996, FLAC (image + .cue), lossless

Ответить на тему
 

Massageth ®

Стаж: 6 лет 9 месяцев

Сообщений: 116

Симпатии: 15

Great White-Great Zeppelin (A Tribute To Led Zeppelin)- -Страна: США | Жанр: Hard Rock / Melodic Rock | Год выхода альбома: 1996-Год выпуска диска: 2004 | Лейбл: IROND | Номер по каталогу: CD 04-565/DD70-Аудио кодек: FLAC | Тип рипа: image+.cue | Битрейт аудио: lossless-Продолжительность: 01:16:17-Величайшие песни LED ZEPPELIN в безупречном "живом" исполнении. GREAT WHITE, одна из наиболее известных и уважаемых hard rock-групп мира отдала дань своим кумирам на сцене Galaxy Concert Theatre в Сан-Ана, штат Калифорния, США в декабре 1996 года. Каждый уважающий себя поклонник настоящего хард-рока должен приобщиться к этой классике, сыгранной настоящими мастерами!-

Треклист


01. In The Light - (06:06)
02. Living Loving Maid (She's Just A Woman) - (03:30)
03. Ramble On - (05:11)
04. Since I've Been Loving You - (06:44)
05. No Quarter - (08:03)
06. Tangerine - (03:05)
07. Going To California - (04:11)
08. Thank You - (04:37)
09. D'yer Maker - (04:44)
10. All My Love - (06:12)
11. Immigrant Song - (02:21)
12. When The Levee Breaks - (06:51)
13. The Rover - (06:00)
14. Stairway To Heaven - (08:35)

Скан-треклист


Отчёт EAC


Exact Audio Copy V0.99 prebeta 4 from 23. January 2008
EAC extraction logfile from 24. February 2009, 4:21
Great White / Great Zeppelin - A Tribute To Led Zeppelin
Used drive : TSSTcorpCD/DVDW SH-S182D Adapter: 0 ID: 0
Read mode : Secure
Utilize accurate stream : Yes
Defeat audio cache : Yes
Make use of C2 pointers : No
Read offset correction : 6
Overread into Lead-In and Lead-Out : No
Fill up missing offset samples with silence : Yes
Delete leading and trailing silent blocks : No
Null samples used in CRC calculations : No
Used interface : Installed external ASPI interface
Used output format : Internal WAV Routines
Sample format : 44.100 Hz; 16 Bit; Stereo
TOC of the extracted CD
Track | Start | Length | Start sector | End sector
---------------------------------------------------------
1 | 0:00.32 | 6:06.63 | 32 | 27544
2 | 6:07.20 | 3:30.22 | 27545 | 43316
3 | 9:37.42 | 5:11.60 | 43317 | 66701
4 | 14:49.27 | 6:44.30 | 66702 | 97031
5 | 21:33.57 | 8:03.40 | 97032 | 133296
6 | 29:37.22 | 3:05.58 | 133297 | 147229
7 | 32:43.05 | 4:11.17 | 147230 | 166071
8 | 36:54.22 | 4:37.33 | 166072 | 186879
9 | 41:31.55 | 4:44.42 | 186880 | 208221
10 | 46:16.22 | 6:12.35 | 208222 | 236156
11 | 52:28.57 | 2:21.13 | 236157 | 246744
12 | 54:49.70 | 6:51.60 | 246745 | 277629
13 | 61:41.55 | 6:00.15 | 277630 | 304644
14 | 67:41.70 | 8:35.42 | 304645 | 343311
Range status and errors
Selected range
Filename C:\Great White - Great Zeppelin - A Tribute To Led Zeppelin.wav
Peak level 100.0 %
Range quality 99.9 %
Copy CRC 773EA067
Copy OK
No errors occurred
End of status report

Создавать темы 30-Янв-2015 20:12

[Профиль]  [ЛС] 
Показать сообщения:    
Ответить на тему

Текущее время: 18-Авг 10:05

Часовой пояс: UTC + 5



Вы не можете начинать темы
Вы не можете отвечать на сообщения
Вы не можете редактировать свои сообщения
Вы не можете удалять свои сообщения
Вы не можете голосовать в опросах
Вы не можете прикреплять файлы к сообщениям
Вы не можете скачивать файлы