Вор / Thief (Майкл Манн) [1981 г., боевик, триллер, драма, криминал, BDRip] DVO

Ответить на тему
 

lotto ®

Стаж: 7 лет 7 месяцев

Сообщений: 221

Симпатии: 409

Вор / Thief
«Tonight, his take home pay is $410,000...tax free»
-- Год выпуска: 1981
Страна: США
Жанр: фантастика, драма
Продолжительность: 02:04:41
Перевод: Профессиональный (двухголосый)--Режиссер: Майкл Манн
В ролях: Джеймс Каан, Тьюзди Уэлд, Уилли Нельсон, Джеймс Белуши, Роберт Проски, Том Сигнорелли, Деннис Фарина, Ник Никеас, В.Р. Браун, Норм Тобин--Описание: Фрэнк — эксперт по вскрытию сейфов, профессионал высшей пробы, и работы для него всегда хватает. Но он уже побывал за решеткой, и возвращаться туда не собирается. Нужен всего один, но верный взлом.
И тут дразнящая мечта о будущем заставляет его потерять осторожность: поддавшись искушению, матерый волк-одиночка соглашается поработать на крупного мафиози! Капкан захлопнулся, разовых контрактов с мафией не бывает. Лучший друг Фрэнка убит, любимая женщина — в руках бандитов, а сам он становится их собственностью…-- --Качество: BDRip
Формат: AVI
Видео кодек: XviD
Аудио кодек: AC3
Видео: 720x384, 1470 kbps, 23.976 fps
Аудио: 48 KHz, 2 ch, 192 kbps (русский, двухголосый)

MediaInfo

General
Complete name : \Thief.1981.BDRip.avi
Format : AVI
Format/Info : Audio Video Interleave
File size : 1.46 GiB
Duration : 2h 4mn
Overall bit rate : 1 672 Kbps
Movie name : Thief.1981.BDRip
Director : rip by maygli
Writing application : VirtualDubMod 1.5.10.3 | www.virtualdub-fr.org || (build 2550/release)
Writing library : VirtualDubMod build 2550/release
Copyright : for tas-ix.net
Video
ID : 0
Format : MPEG-4 Visual
Format profile : Advanced [email protected]
Format settings, BVOP : 1
Format settings, QPel : No
Format settings, GMC : No warppoints
Format settings, Matrix : Custom
Codec ID : XVID
Codec ID/Hint : XviD
Duration : 2h 4mn
Bit rate : 1 470 Kbps
Width : 720 pixels
Height : 384 pixels
Display aspect ratio : 1.85:1
Frame rate : 23.976 fps
Color space : YUV
Chroma subsampling : 4:2:0
Bit depth : 8 bits
Scan type : Progressive
Compression mode : Lossy
Bits/(Pixel*Frame) : 0.222
Stream size : 1.28 GiB (88%)
Writing library : XviD 65
Audio
ID : 1
Format : AC-3
Format/Info : Audio Coding 3
Mode extension : CM (complete main)
Format settings, Endianness : Big
Codec ID : 2000
Duration : 2h 4mn
Bit rate mode : Constant
Bit rate : 192 Kbps
Channel(s) : 2 channels
Channel positions : Front: L R
Sampling rate : 48.0 KHz
Bit depth : 16 bits
Compression mode : Lossy
Stream size : 171 MiB (11%)
Alignment : Split accross interleaves
Interleave, duration : 42 ms (1.00 video frame)
Interleave, preload duration : 500 ms

Скриншоты





Создавать темы 30-Янв-2015 22:00

[Профиль]  [ЛС] 

lotto ®

Стаж: 7 лет 7 месяцев

Сообщений: 221

Симпатии: 409

Перед тем, как снять фильм "Схватка", Майкл Манн снял отличный фильм - "Вор"

Создавать темы 30-Янв-2015 22:12

[Профиль]  [ЛС] 

Hurshid Holmatov

Стаж: 3 года 6 месяцев

Сообщений: 2

Не знаю кто скидывает, но какой день подряд здесь появляются отличные фильмы.
Спасибо коллекционерам имеющих такую фильмотеку. Ценю!!!

Создавать темы 30-Янв-2015 22:38

[Профиль]  [ЛС] 
Показать сообщения:    
Ответить на тему

Текущее время: 20-Авг 20:35

Часовой пояс: UTC + 5



Вы не можете начинать темы
Вы не можете отвечать на сообщения
Вы не можете редактировать свои сообщения
Вы не можете удалять свои сообщения
Вы не можете голосовать в опросах
Вы не можете прикреплять файлы к сообщениям
Вы не можете скачивать файлы