Куродзука / Kurozuka / 黒塚 (Тэцуро Араки) [TV] [12 из 12] [2008 г., Ужасы, Фэнтези, Романтика, Приключения, DTVRip] [Cuba77]

Ответить на тему
 

Machine ®

Стаж: 5 лет 3 месяца

Сообщений: 209

Симпатии: 68



Год выпуска: 2008
Страна: Япония
Студия:
Жанр: Ужасы, Фэнтези, Романтика, Приключения
Тип: TV
Продолжительность: 12 х ~ 25 мин
Перевод: Любительский (одноголосый)
Озвучка: Cuba77

Режиссер: Тэцуро Араки
Создатель: Баку Юмэмакура

В ролях: Мамору Мияно, Пак Роми, Дзёдзи Наката, Хоко Кувасима, Кейдзи Фудзивара, Мики Синъитиро, Ирино Мию, Кадзухико Иноэ, Тёру Окава, Бандзё Гинга

Описание: Эта история начинается в эпоху Хэйан. Скрываясь от погони, двое монахов останавливаются на ночлег в одиноком доме. Куро, чьё благородное происхождение трудно не заметить, скрывается от убийц из клана Минамото. Бэнкэй готов защищать его даже ценою своей жизни. Неожиданно для себя Куро влюбляется в приютившую их женщину – прекрасную Куромицу, и она отвечает на его чувства. Однако, Куромицу преследуют враги, жаждущие познать тайну её вечной молодости. Эта история заканчивается в последнюю эпоху человечества. Лишь немногие уцелели после Апокалипсиса ядерных взрывов и чёрной зимы. Теперь Куро должен спасти Куромицу. Чувства влюблённых остались прежними, несмотря на прошедшие века, несмотря на разлуки, боль, отчаяние и необходимость постоянно убегать и принимать бой, в котором невозможно победить. В запутанном сюжете «Куродзуки» хватает загадок и недоговорённостей, времена и воспоминания перемешаны, так что уже невозможно различить, где сон, а где явь. Единственное, что остаётся неизменным, это сила истинной любви, связавшей Куро и Куромицу – любви, что страшнее любого проклятия. © Расселл Д. Джонс [World Art]

 

Качество: DTVRip
Формат: MP4
Видео кодек: AVC
Аудио кодек: AAC
Видео: AVC; 750 Kb/s, 640x360, 25.000 fps
Аудио: AAC; 128 Kb/s, 2 ch, 44.1 KHz

Эпизоды

1. The Plain of Adachi-ga-hara [adachi ga haraerrorsource / 安達原]
2. The Tomb of Karma [innen dzukaerrorsource / 因縁塚]
3. Asuka [asuka / 明日香]
4. Haniwa Man [haniwa bito / 埴輪人]
5. Saniwa [saniwa / 沙仁輪]
6. Miitsu [御稜威]
7. Kagura Village [kagura / 神楽村]
8. The Screeching Ivy [kikoku tsuta / 鬼哭蔦]
9. Fire Whirlwind [soufuuka / 走風火]
10. The Phantom Castle [genei jou / 幻影城]
11. Endless Struggle [ikusa rinne / 戦輪廻]
12. The Black Tomb [kuro no zuka / 黒乃塚]

MI

General
Complete name : D:\Video\Куродзука (12 серий из 12)\куродзука серия 2.mp4
Format : MPEG-4
Format profile : Base Media
Codec ID : isom
File size : 98.8 MiB
Duration : 23mn 0s
Overall bit rate mode : Variable
Overall bit rate : 912 Kbps
Writing application : Lavf54.59.106
Video
ID : 1
Format : AVC
Format/Info : Advanced Video Codec
Format profile : [email protected]
Format settings, CABAC : No
Format settings, ReFrames : 3 frames
Codec ID : avc1
Codec ID/Info : Advanced Video Coding
Duration : 22mn 59s
Bit rate : 750 Kbps
Width : 640 pixels
Height : 360 pixels
Display aspect ratio : 16:9
Frame rate mode : Constant
Frame rate : 25.000 fps
Color space : YUV
Chroma subsampling : 4:2:0
Bit depth : 8 bits
Scan type : Progressive
Bits/(Pixel*Frame) : 0.078
Stream size : 76.8 MiB (78%)
Writing library : x264 core 129
Encoding settings : cabac=0 / ref=3 / deblock=1:0:0 / analyse=0x1:0x111 / me=hex / subme=7 / psy=1 / psy_rd=1.00:0.00 / mixed_ref=1 / me_range=16 / chroma_me=1 / trellis=1 / 8x8dct=0 / cqm=0 / deadzone=21,11 / fast_pskip=1 / chroma_qp_offset=-2 / threads=24 / lookahead_threads=4 / sliced_threads=0 / nr=0 / decimate=1 / interlaced=0 / bluray_compat=0 / constrained_intra=0 / bframes=0 / weightp=0 / keyint=250 / keyint_min=25 / scenecut=40 / intra_refresh=0 / rc_lookahead=40 / rc=abr / mbtree=1 / bitrate=450 / ratetol=1.0 / qcomp=0.60 / qpmin=0 / qpmax=69 / qpstep=4 / vbv_maxrate=10000 / vbv_bufsize=10000 / nal_hrd=none / ip_ratio=1.40 / aq=1:1.00
Audio
ID : 2
Format : AAC
Format/Info : Advanced Audio Codec
Format profile : LC
Codec ID : 40
Duration : 23mn 0s
Bit rate mode : Variable
Bit rate : 128 Kbps
Maximum bit rate : 10 000 Kbps
Channel(s) : 2 channels
Channel positions : Front: L R
Sampling rate : 44.1 KHz
Compression mode : Lossy
Stream size : 21.1 MiB (21%)
Language : Russian

Скриншоты



Последний раз редактировалось: Machine (2015-02-01 19:29), всего редактировалось 7 раз(а)

Создавать темы 01-Фев-2015 18:37

[Профиль]  [ЛС] 

Machine ®

Стаж: 5 лет 3 месяца

Сообщений: 209

Симпатии: 68

Надеюсь в тот раздел залил..

Создавать темы 01-Фев-2015 18:59

[Профиль]  [ЛС] 
Показать сообщения:    
Ответить на тему

Текущее время: 11-Дек 16:25

Часовой пояс: UTC + 5



Вы не можете начинать темы
Вы не можете отвечать на сообщения
Вы не можете редактировать свои сообщения
Вы не можете удалять свои сообщения
Вы не можете голосовать в опросах
Вы не можете прикреплять файлы к сообщениям
Вы не можете скачивать файлы