Твоя апрельская ложь / Shigatsu wa Kimi no Uso [TV] (Исигуро Кёхэй) [22 из 22] [RUS] [BalFor & Трина Дубовицкая] [2014 г., романтика, HDTVRip] [720p]

Страницы :  1, 2  След.

Ответить на тему
 

Coolboy_17 ®

Стаж: 4 года 2 месяца

Сообщений: 76

Симпатии: 14

Твоя апрельская ложь
Shigatsu wa Kimi no Uso
Год выпуска: 2014
Страна: Япония
Жанр: романтика
Продолжительность: 22 эп. по 25 мин-Озвучивание: BalFor & Трина Дубовицкая-Режиссер: Исигуро Кёхэй
Снято по манге: Shigatsu wa Kimi no Uso
Автор оригинала: Аракава Наоси
Студия: -Описание: Косэй Арима был вундеркиндом-пианистом, с малых лет выигравшим множество состязаний. Конечно, знатоки отмечали, что по стилю малыш скорее техник, чем виртуоз, и даже дали ему кличку «метроном», но судьи не считали это недостатком. Увы, в 11 лет Арима потерял мать – единственного учителя и наставника – и перестал слышать свою игру. Боль от потери преградила ему путь к роялю, и Косэй словно застыл во времени, два года общаясь лишь с друзьями детства Цубаки и Рётой. Стремясь расшевелить парня, Цубаки вытащила его на «двойное свидание» – тут все и началось!
Недостающей участницей оказалась золотоволосая Каори Миядзоно, на редкость импульсивная и энергичная. Из-за нее вся компания вместо кино или шопинга оказалась в концертном зале, где Каори участвовала в скрипичном конкурсе. Косэй с первых же нот понял (чужую-то игру он слушать мог), что в музыке девушка – его антипод: вместо феноменально точного следования партитуре она играет, как душе угодно! Что ж, противоположности сходятся, и после пары дней знакомства Миядзоно твердо взяла дело в свои руки и предложила Ариме аккомпанировать ей на втором этапе конкурса. А там ведь и до возвращения на сцену недалеко!
-Информационные ссылки:AniDB | World Art | MAL-Качество: HDTVRip
Формат: Mp4
Видео: x264; 1280х720; 23.976fps; ~2000 kbps
Аудио: Rus - Aac; 48.0 khz; 2.0ch; 192kbps - в составе контейнера-[BalFor & Трина Дубовицкая]

Список Эпизодов


01. Чёрно-белый | Яркий
02. Друг номер один
03. Где всегда весна
04. Начало пути
05. Пасмурное небо
06. По дороге домой
07. Шёпот теней
08. Акустика
09. Резонанс
10. Там, где мы были вместе
11. Жизни огонёк
12. Twinkle Little Star
13. Муки любви
14. Следы
15. Обманщик
16. Два сапога пара
17. Сумерки
18. Единение сердец
19. Прощай, герой
20. Рука об руку
21. Снегопад
22. Весенний ветер

Подробные тех. данные

General
Complete name                  : D:\Аnime\Anime\Shigatsu wa Kimi no Uso\Shigatsu_wa_Kimi_no_Uso_[01]_[720p_x264_Aac]_[BalFor_Trina_D].mp4
Format                         : MPEG-4
Format profile                 : Base Media
Codec ID                       : isom
File size                      : 344 MiB
Duration                       : 22mn 59s
Overall bit rate mode          : Variable
Overall bit rate               : 2 090 Kbps
Encoded date                   : UTC 2014-10-12 10:57:35
Tagged date                    : UTC 2014-10-12 10:57:35
Writing application            : Yamb 2.1.0.0 [http://yamb.unite-video.com]
Video
ID                             : 1
Format                         : AVC
Format/Info                    : Advanced Video Codec
Format profile                 : [email protected]
Format settings, CABAC         : Yes
Format settings, ReFrames      : 4 frames
Codec ID                       : avc1
Codec ID/Info                  : Advanced Video Coding
Duration                       : 22mn 59s
Bit rate                       : 1 925 Kbps
Maximum bit rate               : 10.8 Mbps
Width                          : 1 280 pixels
Height                         : 720 pixels
Display aspect ratio           : 16:9
Frame rate mode                : Constant
Frame rate                     : 23.976 fps
Color space                    : YUV
Chroma subsampling             : 4:2:0
Bit depth                      : 8 bits
Scan type                      : Progressive
Bits/(Pixel*Frame)             : 0.087
Stream size                    : 317 MiB (92%)
Title                          : 264
Writing library                : x264 core 129 r2245+729M 1a52e03
Encoding settings              : cabac=1 / ref=4 / deblock=1:1:-1 / analyse=0x3:0x113 / me=umh / subme=9 / psy=1 / fade_compensate=0.00 / psy_rd=1.00:0.00 / mixed_ref=1 / me_range=24 / chroma_me=1 / trellis=2 / 8x8dct=1 / cqm=0 / deadzone=21,11 / fast_pskip=1 / chroma_qp_offset=-2 / threads=8 / lookahead_threads=1 / sliced_threads=0 / nr=0 / decimate=1 / interlaced=0 / bluray_compat=0 / constrained_intra=0 / fgo=0 / bframes=9 / b_pyramid=2 / b_adapt=2 / b_bias=0 / direct=1 / weightb=1 / open_gop=0 / weightp=2 / keyint=240 / keyint_min=24 / scenecut=40 / intra_refresh=0 / rc=crf / mbtree=0 / crf=18.5 / qcomp=0.72 / qpmin=0 / qpmax=69 / qpstep=4 / ip_ratio=1.40 / pb_ratio=1.30 / aq=1:0.85
Encoded date                   : UTC 2014-10-10 02:38:51
Tagged date                    : UTC 2014-10-12 10:57:37
Color primaries                : BT.709-5, BT.1361, IEC 61966-2-4, SMPTE RP177
Transfer characteristics       : BT.709-5, BT.1361
Matrix coefficients            : BT.709-5, BT.1361, IEC 61966-2-4 709, SMPTE RP177
Audio
ID                             : 2
Format                         : AAC
Format/Info                    : Advanced Audio Codec
Format profile                 : LC
Codec ID                       : 40
Duration                       : 22mn 59s
Bit rate mode                  : Variable
Bit rate                       : 162 Kbps
Maximum bit rate               : 238 Kbps
Channel(s)                     : 2 channels
Channel positions              : Front: L R
Sampling rate                  : 48.0 KHz
Compression mode               : Lossy
Stream size                    : 26.7 MiB (8%)
Title                          : Ì 
Language                       : Russian
Encoded date                   : UTC 2014-10-12 10:57:36
Tagged date                    : UTC 2014-10-12 10:57:37

Скриншоты







Последний раз редактировалось: Coolboy_17 (2015-04-01 06:26), всего редактировалось 17 раз(а)

Создавать темы 02-Фев-2015 01:52

[Профиль]  [ЛС] 

Deepz

Стаж: 4 года 10 месяцев

Сообщений: 11

Симпатии: 1

Обещал - сделал , спасибо большое))

Создавать темы 02-Фев-2015 02:13

[Профиль]  [ЛС] 

Deepz

Стаж: 4 года 10 месяцев

Сообщений: 11

Симпатии: 1

хотя,лучше подожду,а то что-то список файлов пугает ((

Создавать темы 02-Фев-2015 02:15

[Профиль]  [ЛС] 

bumblebee

Стаж: 7 лет

Сообщений: 97

Симпатии: 1

916402хотя,лучше подожду,а то что-то список файлов пугает ((
+1...)

Создавать темы 02-Фев-2015 04:23

[Профиль]  [ЛС] 

darkus

Стаж: 4 года

Сообщений: 30

Симпатии: 2

хей Уже 14 серий есть))

Создавать темы 02-Фев-2015 11:44

[Профиль]  [ЛС] 

Deepz

Стаж: 4 года 10 месяцев

Сообщений: 11

Симпатии: 1

darkus, 15* )

Создавать темы 02-Фев-2015 13:06

[Профиль]  [ЛС] 

FireHowler

Стаж: 4 года 3 месяца

Сообщений: 270

Симпатии: 153

А вы с озвучкой от кансай выкладывать не будете?

Создавать темы 02-Фев-2015 16:42

[Профиль]  [ЛС] 

Coolboy_17 ®

Стаж: 4 года 2 месяца

Сообщений: 76

Симпатии: 14

1 серия P.S. Остальные серии добавлю в эти дни

Создавать темы 02-Фев-2015 17:24

[Профиль]  [ЛС] 

Coolboy_17 ®

Стаж: 4 года 2 месяца

Сообщений: 76

Симпатии: 14

FireHowler, Нет! От них озвучка задерживается

Создавать темы 02-Фев-2015 17:33

[Профиль]  [ЛС] 

darkus

Стаж: 4 года

Сообщений: 30

Симпатии: 2

916537 1 серия P.S. Остальные серии добавлю в эти дни
в этом релизе озвучка гнилая от Кансай ((( жалко

Создавать темы 02-Фев-2015 22:12

[Профиль]  [ЛС] 

darkus

Стаж: 4 года

Сообщений: 30

Симпатии: 2

ой цитату не тому отправил хД

Создавать темы 02-Фев-2015 22:12

[Профиль]  [ЛС] 

[email protected]

Стаж: 4 года 1 месяц

Сообщений: 336

Симпатии: 143

darkus, В таком случае можно воспользоватся кнопкой в верхнем правом углу и не даблпостить.

Создавать темы 03-Фев-2015 12:00

[Профиль]  [ЛС] 

darkus

Стаж: 4 года

Сообщений: 30

Симпатии: 2

916740darkus, В таком случае можно воспользоватся кнопкой в верхнем правом углу и не даблпостить.
спс

Создавать темы 03-Фев-2015 22:17

[Профиль]  [ЛС] 

FireHowler

Стаж: 4 года 3 месяца

Сообщений: 270

Симпатии: 153

А мне озвучка от кансай понравилась, буду ждать их. Кого интересует кансай озвучка пишите в лс, выложу.

Комментарий от SNIL


Лучше выкладывай то чего тут нет!

Создавать темы 03-Фев-2015 23:12

[Профиль]  [ЛС] 

Coolboy_17 ®

Стаж: 4 года 2 месяца

Сообщений: 76

Симпатии: 14

Обновлено до 10 серии P.S. остальные серии добавлю в эти дни

Создавать темы 04-Фев-2015 23:34

[Профиль]  [ЛС] 
Показать сообщения:    
Ответить на тему

Текущее время: 19-Авг 01:01

Часовой пояс: UTC + 5



Вы не можете начинать темы
Вы не можете отвечать на сообщения
Вы не можете редактировать свои сообщения
Вы не можете удалять свои сообщения
Вы не можете голосовать в опросах
Вы не можете прикреплять файлы к сообщениям
Вы не можете скачивать файлы