Волчий зал / Wolf Hall / Сезон: 1 / Серии: 1-6(6) (Питер Козмински) [2015, Историческая драма, HDTVRip] DVO (Kiitos)

Ответить на тему
 

emilsky ®

Стаж: 7 лет 4 месяца

Сообщений: 2237

Симпатии: 610

Волчий зал / Wolf Hall
Год выпуска: 2015
Страна: Великобритания
Жанр: Историческая драма
Продолжительность: ~01:03:00-Перевод: Любительский (двухголосый закадровый) Kiitos
Перевод: Miloslava, NickSt
Озвучивание: kiitos, Chertenok
Работа с видео, сведение: kiitos-Режиссёр: Питер Козмински
В ролях: Марк Райленс, Дэмиан Льюис, Клэр Фой, Джонатан Прайс, Саскиа Ривз, Кейт Филипс, Бернард Хилл, Ричард Диллан, Гарри Ллойд, Дейвид Робб, Макрк Гатисс, Энтон Лессер, Черти Уэйкфилд-Описание: Англия в 1520 году на грани катастрофы. Если король умрет, не оставив наследника мужского пола, страна будет уничтожена Гражданской войной. Генрих VIII хочет аннулировать свой брак с Екатериной Арагонской, а папа и некоторые европейские монархи противостоят этому. Но в борьбу за своего короля и собственные амбиции вступает Томас Кромвель, необычный, харизматичный, амбициозный идеалист и нигилист.-Качество: HDTVRip
Формат: AVI
Видео кодек: XviD
Аудио кодек: MP3
Видео: XviD, 720x400 (16:9), 25 fps, 1337 kbps
Аудио: MP3, 48 kHz, stereo, 192 kbps
Субтитры: отсутствуют

MediaInfo

General
Format : AVI
Format/Info : Audio Video Interleave
File size : 700 MiB
Duration : 1h 3mn
Overall bit rate : 1 539 Kbps
Writing application : VirtualDubMod 1.5.10.2 (build 2540/release)
Writing library : VirtualDubMod build 2540/release
Video
ID : 0
Format : MPEG-4 Visual
Format profile : [email protected]
Format settings, BVOP : 1
Format settings, QPel : No
Format settings, GMC : No warppoints
Format settings, Matrix : Default (MPEG)
Codec ID : XVID
Codec ID/Hint : XviD
Duration : 1h 3mn
Bit rate : 1 337 Kbps
Width : 720 pixels
Height : 400 pixels
Display aspect ratio : 16:9
Frame rate : 25.000 fps
Color space : YUV
Chroma subsampling : 4:2:0
Bit depth : 8 bits
Scan type : Progressive
Compression mode : Lossy
Bits/(Pixel*Frame) : 0.186
Stream size : 608 MiB (87%)
Writing library : XviD 1.0.3 (UTC 2004-12-20)
Audio
ID : 1
Format : MPEG Audio
Format version : Version 1
Format profile : Layer 3
Mode : Joint stereo
Codec ID : 55
Codec ID/Hint : MP3
Duration : 1h 3mn
Bit rate mode : Constant
Bit rate : 192 Kbps
Channel(s) : 2 channels
Sampling rate : 48.0 KHz
Compression mode : Lossy
Stream size : 87.3 MiB (12%)
Alignment : Aligned on interleaves
Interleave, duration : 40 ms (1.00 video frame)
Interleave, preload duration : 504 ms

Внимание! Раздача ведётся путём добавления новых серий

Внимание! Раздача ведётся путём добавления новых серий; при каждом добавлении создётся новый торрент. Чтобы начать докачку новой серии, пользователям необходимо сделать следующее:
(1) остановить скачивание,
(2) удалить старый торрент у себя из клиента (старые серии удалять не надо),
(3) скачать новый торрент и запустить его у себя в клиенте вместо старого, при этом указать клиенту путь в старую папку куда и должно происходить скачивание новых серий.
Ваш клиент при этом должен произвести хеширование (проверку) старой папки (если не производит сам - помогите ему сделать это), и будет докачивать только те серии которых у вас ещё нет. Старые серии при этом не удаляются, а продолжают раздаваться!
Eсли вы уже удалили старые серии, то предотвратить повторную закачку старых серий можно, отжав галочку в соответсвующих местах при запуске нового торрента.

Скриншоты



Последний раз редактировалось: emilsky (2015-04-25 11:31), всего редактировалось 2 раз(а)

Создавать темы 02-Фев-2015 06:32

[Профиль]  [ЛС] 

emilsky ®

Стаж: 7 лет 4 месяца

Сообщений: 2237

Симпатии: 610

обновлено до 5 серии!

Создавать темы 11-Мар-2015 06:31

[Профиль]  [ЛС] 

emilsky ®

Стаж: 7 лет 4 месяца

Сообщений: 2237

Симпатии: 610

6 серия, финал!

Создавать темы 20-Апр-2015 05:36

[Профиль]  [ЛС] 
Показать сообщения:    
Ответить на тему

Текущее время: 18-Ноя 00:41

Часовой пояс: UTC + 5



Вы не можете начинать темы
Вы не можете отвечать на сообщения
Вы не можете редактировать свои сообщения
Вы не можете удалять свои сообщения
Вы не можете голосовать в опросах
Вы не можете прикреплять файлы к сообщениям
Вы не можете скачивать файлы