Привет, девушки: Давай знакомиться / Hello Ladies: The Movie (Стивен Мерчант) [2014 г., комедия, HDTVRip]

Ответить на тему
 

Davron1402 ®

Стаж: 3 года 10 месяцев

Сообщений: 136

Симпатии: 122

Привет, девушки: Давай знакомиться / Hello Ladies: The Movie
Год выпуска: 2014
Страна: США
Жанр: комедия
Продолжительность: 01:20:23
Перевод: Любительский (одноголосный)
Режиссер: Стивен Мерчант
Cценарий: Стивен Мерчант, Джин Ступницки, Ли Айзенберг
Продюсер: Дэн Каплоу, Ли Айзенберг, Стивен Мерчант, ...
Оператор: Майкл А. Прайс
Композитор: Вик Шарма
Художник: Джим Уоллис, Бретт МакКензи, Сьюзэн Михалек
Монтаж: Джастин Берре
В ролях: • Стивен Мерчант
• Кристин Вудс
• Нейт Торренс
• Кевин Уайзман
• Кайл Муни
• Адам Кэмпбелл
• Карли Крэйг
• Криста Флэнеган
• Нельсон Франклин
• Райан Хансен
Описание: Стюарт - благополучный но слегка закомплексованный мужчина в самом расцвете сил. Он недавно расстался со своей подругой и переехал в Лос Анджелес. Когда его бывшая приезжает к нему в гости, он решает сделать все, чтобы произвести впечатление сверхуспешного человека: хвастается знакомствами со знаменитостями и достает приглашения на самые элитные вечеринки...
Качество: HDTVRip
Формат: mp4 (MPEG-4)
Видео кодек: AVC
Аудио кодек: AAC
Видео: AVC, 1024 x 576 (16:9), 23.976 fps, 2 081 Kbps
Аудио:AAC, 48.0 KHz, 2 channels, 128 Kbps

MI

Расположение: D:\Клипы\Russ\_hello.mp4
Имя файла: _hello.mp4
Формат файла: .mp4 (MPEG-4)
Размер файла: 1.24 GB
Длительность: 1h 20mn
Навигация по главам: Нет
Bitrate (все потоки): 2 214 Kbps
...при помощи: Lavf53.31.100
Название: _hello
Тип потока: Видео
Длительность: 01:20:23
Кодек: AVC
Кодек/Профиль: [email protected]
Кодек/ID: avc1
Кодек/CABAC: Yes
Кодек/ReFrames: 8 frames
Размеры изображения: 1024 x 576 (16:9)
Частота кадров: 23.976 fps
Размер потока: 1.17 GiB (94%)
Битрейт: 2 081 Kbps
Цветовое пространство: YUV
Тип развёртки: Progressive
Глубина: 8 bits
Тип потока: Звук #1
Длительность: 01:20:23.396
Кодек: AAC
Кодек/Профиль: LC
Кодек/ID: 40
Частота дискретизации: 48.0 KHz
Каналов: 2 channels
Битрейт: 128 Kbps
Битрейт/тип: Constant
Размер потока: 73.6 MiB (6%)
Метод сжатия: Lossy

Скриншоты



Создавать темы 02-Фев-2015 19:39

[Профиль]  [ЛС] 

zhozef

Стаж: 5 лет 10 месяцев

Сообщений: 35

Симпатии: 6

IMDB 6.9

Создавать темы 03-Фев-2015 08:34

[Профиль]  [ЛС] 

AligarH

Стаж: 5 лет 10 месяцев

Сообщений: 31

Ну Как Филм ?

Создавать темы 03-Фев-2015 18:17

[Профиль]  [ЛС] 

Davron1402 ®

Стаж: 3 года 10 месяцев

Сообщений: 136

Симпатии: 122

Приятного просмотра

Создавать темы 09-Фев-2015 20:13

[Профиль]  [ЛС] 
Показать сообщения:    
Ответить на тему

Текущее время: 18-Ноя 21:02

Часовой пояс: UTC + 5



Вы не можете начинать темы
Вы не можете отвечать на сообщения
Вы не можете редактировать свои сообщения
Вы не можете удалять свои сообщения
Вы не можете голосовать в опросах
Вы не можете прикреплять файлы к сообщениям
Вы не можете скачивать файлы