(Hard Rock) Deep Purple - Smoke On The Water, The Best Of - 2004, FLAC (image + .cue), lossless

Ответить на тему
 

Massageth ®

Стаж: 7 лет 1 месяц

Сообщений: 116

Симпатии: 15

Deep Purple-"Smoke On The Water"-The Best Of- -Страна: Великобритания | Жанр: Hard Rock | Год выпуска: 2004 | Наличие сканов в раздаче: Да-Лейбл: SomeWax Traiding, Россия, Москва | Номер по каталогу: SW314-2-Формат: FLAC (image + .cue) | Битрейт аудио: lossless, Digital Remastered-Продолжительность: 01:19:48-

Треклист


01. Highway Star - (06:09)
02. Stormbringer - (04:07)
03. Smoke On The Water - (05:42)
04. Rat Bat Blue - (05:26)
05. Child In Time - (10:20)
06. Hush - (04:26)
07. Speed King - (05:52)
08. Fireball - (03:25)
09. Soldier Of Fortune - (03:16)
10. Into The Fire - (03:32)
11. Woman From Tokyo - (05:09)
12. Burn - (06:03)
13. Strange Kind Of Woman - (04:07)
14. April - (12:06)

Отчёт EAC


Exact Audio Copy V0.99 prebeta 5 from 4. May 2009
Отчёт EAC об извлечении, выполненном 18. июня 2014, 19:48
Deep Purple / Smoke On The Water, The Best
Дисковод: SlimtypeeSAU108 8 Adapter: 2 ID: 0
Режим чтения : Достоверность
Использование точного потока : Да
Отключение кэша аудио : Да
Использование указателей C2 : Нет
Коррекция смещения при чтении : 6
Способность читать области Lead-in и Lead-out : Нет
Заполнение пропущенных сэмплов тишиной : Да
Удаление блоков с тишиной в начале и конце : Нет
При вычислениях CRC использовались нулевые сэмплы : Да
Интерфейс : Встроенный Win32-интерфейс для Win NT/2000
Выходной формат : Внутренние WAV-операции
Формат сэмплов : 44.100 Гц; 16 бит; стерео
TOC извлечённого CD
Трек | Старт | Длительность | Начальный сектор | Конечный сектор
---------------------------------------------------------------------
1 | 0:00.00 | 6:09.34 | 0 | 27708
2 | 6:09.34 | 4:07.49 | 27709 | 46282
3 | 10:17.08 | 5:42.09 | 46283 | 71941
4 | 15:59.17 | 5:26.70 | 71942 | 96461
5 | 21:26.12 | 10:20.25 | 96462 | 142986
6 | 31:46.37 | 4:26.72 | 142987 | 163008
7 | 36:13.34 | 5:52.71 | 163009 | 189479
8 | 42:06.30 | 3:25.49 | 189480 | 204903
9 | 45:32.04 | 3:16.57 | 204904 | 219660
10 | 48:48.61 | 3:32.11 | 219661 | 235571
11 | 52:20.72 | 5:09.31 | 235572 | 258777
12 | 57:30.28 | 6:03.46 | 258778 | 286048
13 | 63:33.74 | 4:07.74 | 286049 | 304647
14 | 67:41.73 | 12:06.74 | 304648 | 359171
Характеристики диапазона извлечения и сообщения об ошибках
Выбранный диапазон
Имя файла F:\Музыка\Deep Purple - Smoke On The Water, The Best.wav
Пиковый уровень 90.4 %
Качество диапазона 100.0 %
CRC теста 27BD078A
CRC копии 27BD078A
Копирование... OK
Ошибок не произошло
AccurateRip: сводка
Трек 1 нет в базе данных
Трек 2 нет в базе данных
Трек 3 нет в базе данных
Трек 4 нет в базе данных
Трек 5 нет в базе данных
Трек 6 нет в базе данных
Трек 7 нет в базе данных
Трек 8 нет в базе данных
Трек 9 нет в базе данных
Трек 10 нет в базе данных
Трек 11 нет в базе данных
Трек 12 нет в базе данных
Трек 13 нет в базе данных
Трек 14 нет в базе данных
Ни одного трека нет в базе AccurateRip
Конец отчёта

Создавать темы 03-Фев-2015 17:38

[Профиль]  [ЛС] 

Tolik4523

Стаж: 5 лет 10 месяцев

Сообщений: 271

Симпатии: 27

По возможности залей альбом Fireball (1971)
Буду благодарен

Создавать темы 03-Фев-2015 23:33

[Профиль]  [ЛС] 

Massageth ®

Стаж: 7 лет 1 месяц

Сообщений: 116

Симпатии: 15

Tolik4523 Получай заказ:
https://tas-ix.net/viewtopic.php?t=103367

Создавать темы 10-Фев-2015 13:00

[Профиль]  [ЛС] 
Показать сообщения:    
Ответить на тему

Текущее время: 12-Дек 19:21

Часовой пояс: UTC + 5



Вы не можете начинать темы
Вы не можете отвечать на сообщения
Вы не можете редактировать свои сообщения
Вы не можете удалять свои сообщения
Вы не можете голосовать в опросах
Вы не можете прикреплять файлы к сообщениям
Вы не можете скачивать файлы