Путешествие Гектора в поисках счастья / Hector and the Search for Happiness (Питер Челсом) [2014 г., драма, комедия, приключения, BDRip-AVC] DUB (Лицензия) + Original

Ответить на тему
 

lotto ®

Стаж: 7 лет 8 месяцев

Сообщений: 221

Симпатии: 409

Путешествие Гектора в поисках счастья / Hector and the Search for Happiness
«Everyone wants to find it»
-- Год выпуска: 2014
Страна: Великобритания, Германия, Канада, ЮАР
Жанр: драма, комедия, приключения
Продолжительность: 01:59:26
Перевод: Профессиональный (полное дублирование) Лицензия--Режиссер: Питер Челсом
В ролях: Саймон Пегг, Тони Коллетт, Розамунд Пайк, Стеллан Скарсгард, Жан Рено, Кристофер Пламмер, Трейси Энн Оберман, Вероника Феррес, Барри Атсма, Минг Жао--Описание: Гектор — немного эксцентричный, но ужасно обаятельный лондонский психиатр — пребывает в состоянии кризиса, вызванного тем, что его пациенты не становятся счастливее, несмотря на все его усилия. И однажды Гектор решается самолично отправиться в путешествие по всему свету, чтобы узнать, существует ли счастье вообще и, что еще важнее, существует ли оно для него самого.-- --Качество: BDRip-AVC
Формат: MKV
Видео кодек: H.264
Аудио кодек: AC3
Видео: 1024x426, 2700 kbps, 24 fps
Аудио 1: 48 KHz, 6 ch, 384 kbps (русский, дублированный)
Аудио 2: 48 KHz, 6 ch, 448 kbps (английский)

MediaInfo

General
Unique ID : 193167603757064623111097163897484627200 (0x9152BA2C25913EBA9A6673582E4C4D00)
Complete name : \Hector and the Search for Happiness.2014.BDRip-AVC.mkv
Format : Matroska
Format version : Version 4 / Version 2
File size : 2.94 GiB
Duration : 1h 59mn
Overall bit rate : 3 530 Kbps
Movie name : Hector and the Search for Happiness
Encoded date : UTC 2015-02-04 07:31:24
Writing application : mkvmerge v6.1.0 ('Old Devil') built on Mar 4 2013 09:10:42
Writing library : libebml v1.3.0 + libmatroska v1.4.0
Attachements : cover.jpg
Video
ID : 1
Format : AVC
Format/Info : Advanced Video Codec
Format profile : [email protected]
Format settings, CABAC : Yes
Format settings, ReFrames : 10 frames
Codec ID : V_MPEG4/ISO/AVC
Duration : 1h 59mn
Bit rate : 2 700 Kbps
Width : 1 024 pixels
Height : 426 pixels
Display aspect ratio : 2.40:1
Frame rate mode : Constant
Frame rate : 24.000 fps
Color space : YUV
Chroma subsampling : 4:2:0
Bit depth : 8 bits
Scan type : Progressive
Bits/(Pixel*Frame) : 0.258
Stream size : 2.19 GiB (74%)
Title : -=MediaClub-kaspr=-
Writing library : x264 core 142 r2431+42 c69a006 tMod [[email protected]:2:0 X86_64]
Encoding settings : cabac=1 / ref=10 / deblock=1:-3:-3 / analyse=0x3:0x113 / me=umh / subme=11 / psy=1 / fade_compensate=0.00 / psy_rd=1.00:0.00 / mixed_ref=1 / me_range=32 / chroma_me=1 / trellis=2 / 8x8dct=1 / cqm=0 / deadzone=21,11 / fast_pskip=0 / chroma_qp_offset=-2 / threads=12 / lookahead_threads=3 / sliced_threads=0 / nr=0 / decimate=0 / interlaced=0 / bluray_compat=0 / constrained_intra=0 / fgo=0 / bframes=14 / b_pyramid=2 / b_adapt=2 / b_bias=0 / direct=3 / weightb=1 / open_gop=0 / weightp=2 / keyint=240 / keyint_min=24 / scenecut=40 / intra_refresh=0 / rc=2pass / mbtree=0 / bitrate=2700 / ratetol=1.0 / qcomp=0.60 / qpmin=0:0:0 / qpmax=69:69:69 / qpstep=4 / cplxblur=20.0 / qblur=0.5 / ip_ratio=1.40 / pb_ratio=1.30 / aq=4:0.80 / aq-sensitivity=10.00 / aq-factor=1.00:1.00:1.00 / aq2=0 / aq3=0
Default : Yes
Forced : No
Audio #1
ID : 2
Format : AC-3
Format/Info : Audio Coding 3
Mode extension : CM (complete main)
Format settings, Endianness : Big
Codec ID : A_AC3
Duration : 1h 59mn
Bit rate mode : Constant
Bit rate : 384 Kbps
Channel(s) : 6 channels
Channel positions : Front: L C R, Side: L R, LFE
Sampling rate : 48.0 KHz
Bit depth : 16 bits
Compression mode : Lossy
Stream size : 328 MiB (11%)
Title : dub
Language : Russian
Default : Yes
Forced : Yes
Audio #2
ID : 3
Format : AC-3
Format/Info : Audio Coding 3
Mode extension : CM (complete main)
Format settings, Endianness : Big
Codec ID : A_AC3
Duration : 1h 59mn
Bit rate mode : Constant
Bit rate : 448 Kbps
Channel(s) : 6 channels
Channel positions : Front: L C R, Side: L R, LFE
Sampling rate : 48.0 KHz
Bit depth : 16 bits
Compression mode : Lossy
Stream size : 383 MiB (13%)
Language : English
Default : No
Forced : No
Menu
00:00:00.000 : en:Chapter 01
00:10:17.000 : en:Chapter 02
00:21:11.875 : en:Chapter 03
00:30:11.125 : en:Chapter 04
00:41:38.708 : en:Chapter 05
00:51:01.250 : en:Chapter 06
01:00:31.416 : en:Chapter 07
01:11:59.583 : en:Chapter 08
01:20:12.958 : en:Chapter 09
01:30:33.333 : en:Chapter 10
01:39:48.833 : en:Chapter 11
01:54:13.041 : en:Chapter 12

Скриншоты





Создавать темы 04-Фев-2015 12:47

[Профиль]  [ЛС] 
Показать сообщения:    
Ответить на тему

Текущее время: 20-Сен 05:26

Часовой пояс: UTC + 5



Вы не можете начинать темы
Вы не можете отвечать на сообщения
Вы не можете редактировать свои сообщения
Вы не можете удалять свои сообщения
Вы не можете голосовать в опросах
Вы не можете прикреплять файлы к сообщениям
Вы не можете скачивать файлы