Кибер-террор / Cyberbully (Бен Чанан / Ben Chanan) [2015 г., Драма, HDTVRip 720p]

Ответить на тему
 

BBositxon ®

Стаж: 7 лет

Сообщений: 16

Симпатии: 3

Кибер-террор / Cyberbully
Год выпуска: 2015
Страна: Великобритания
Жанр: Драма
Продолжительность: 01:02:03
Перевод: Субтитры
Субтитры: Русские, Английские
Оригинальная аудиодорожка: Aнглийский
Формат субтитров: softsub (SSA/ASS)
Режиссер: Бен Чанан / Ben Chanan
В ролях: Мэйси Уильямс, Элла Пернелл, Уилсон Хаагенс, Энтони Шустер, Харука Абе, Джейк Дейвис, Дейзи Уотерстон
Описание: Великобритания. Подросток вынужден выполнять все указания ненормального хакера, в противном случае её интимные фото попадут в сеть...
Сэмпл: http://sendfile.su/1079170
Качество: HDTVRip 720р
Формат: MKV
Видео кодек: Другой MPEG4
Аудио кодек: AC3
Видео: AVC, 1675kbps, 1280x540, 25fps
Аудио: AC3, 2ch, 384kbps, 48kHz - English (original)

MediaInfo

General
Unique ID : 244640494068678453233082564051634170079 (0xB80C0B99ACFCC6CEA6BB38051A0328DF)
Complete name : C:\Users\yes.im.late\Desktop\Cyberbully.mkv
Format : Matroska
Format version : Version 4 / Version 2
File size : 932 MiB
Duration : 1h 2mn
Overall bit rate : 2 101 Kbps
Encoded date : UTC 2015-01-27 16:54:31
Writing application : mkvmerge v7.5.0 ('Glass Culture') 64bit built on Jan 4 2015 16:48:44
Writing library : libebml v1.3.1 + libmatroska v1.4.2
DURATION : 00:59:59.160000000
NUMBER_OF_FRAMES : 697
NUMBER_OF_BYTES : 33823
_STATISTICS_WRITING_APP : mkvmerge v7.5.0 ('Glass Culture') 64bit built on Jan 4 2015 16:48:44
_STATISTICS_WRITING_DATE_UTC : 2015-01-27 16:54:31
_STATISTICS_TAGS : BPS DURATION NUMBER_OF_FRAMES NUMBER_OF_BYTES
Video
ID : 1
Format : AVC
Format/Info : Advanced Video Codec
Format profile : [email protected]
Format settings, CABAC : Yes
Format settings, ReFrames : 5 frames
Codec ID : V_MPEG4/ISO/AVC
Duration : 1h 2mn
Bit rate : 1 675 Kbps
Width : 1 280 pixels
Height : 540 pixels
Display aspect ratio : 2.40:1
Frame rate mode : Constant
Frame rate : 25.000 fps
Color space : YUV
Chroma subsampling : 4:2:0
Bit depth : 8 bits
Scan type : Progressive
Bits/(Pixel*Frame) : 0.097
Stream size : 743 MiB (80%)
Writing library : x264 core 142 r2491 24e4fed
Encoding settings : cabac=1 / ref=5 / deblock=1:0:0 / analyse=0x3:0x113 / me=umh / subme=8 / psy=1 / psy_rd=1.00:0.00 / mixed_ref=1 / me_range=16 / chroma_me=1 / trellis=1 / 8x8dct=1 / cqm=0 / deadzone=21,11 / fast_pskip=1 / chroma_qp_offset=-2 / threads=18 / lookahead_threads=3 / sliced_threads=0 / nr=0 / decimate=1 / interlaced=0 / bluray_compat=0 / constrained_intra=0 / bframes=3 / b_pyramid=2 / b_adapt=2 / b_bias=0 / direct=3 / weightb=1 / open_gop=0 / weightp=2 / keyint=250 / keyint_min=25 / scenecut=40 / intra_refresh=0 / rc_lookahead=50 / rc=crf / mbtree=1 / crf=18.0 / qcomp=0.60 / qpmin=0 / qpmax=69 / qpstep=4 / ip_ratio=1.40 / aq=1:1.00
Default : Yes
Forced : No
Audio
ID : 2
Format : AC-3
Format/Info : Audio Coding 3
Mode extension : CM (complete main)
Format settings, Endianness : Big
Codec ID : A_AC3
Duration : 1h 2mn
Bit rate mode : Constant
Bit rate : 384 Kbps
Channel(s) : 2 channels
Channel positions : Front: L R
Sampling rate : 48.0 KHz
Bit depth : 16 bits
Compression mode : Lossy
Stream size : 170 MiB (18%)
Language : English
Default : Yes
Forced : No
Text #1
ID : 3
Format : ASS
Codec ID : S_TEXT/ASS
Codec ID/Info : Advanced Sub Station Alpha
Compression mode : Lossless
Title : Russian
Language : Russian
Default : Yes
Forced : Yes
Text #2
ID : 4
Format : ASS
Codec ID : S_TEXT/ASS
Codec ID/Info : Advanced Sub Station Alpha
Compression mode : Lossless
Title : English
Language : English
Default : No
Forced : No

Скриншоты




Создавать темы 04-Фев-2015 13:27

[Профиль]  [ЛС] 

Топик был перенесен из форума Фильмы за 2015 в форум HD-AVC
Mixer City

Создавать темы 05-Фев-2015 13:14

 
Показать сообщения:    
Ответить на тему

Текущее время: 18-Дек 06:31

Часовой пояс: UTC + 5



Вы не можете начинать темы
Вы не можете отвечать на сообщения
Вы не можете редактировать свои сообщения
Вы не можете удалять свои сообщения
Вы не можете голосовать в опросах
Вы не можете прикреплять файлы к сообщениям
Вы не можете скачивать файлы