Бёрдмэн / Birdman (Алехандро Гонсалес Иньярриту) [2014 г., драма, комедия, WEB-DL 720p] DUB (Лицензия) + Original + Sub (Eng)

Ответить на тему
 

lotto ®

Стаж: 7 лет 9 месяцев

Сообщений: 221

Симпатии: 409

Бёрдмэн / Birdman-- Год выпуска: 2014
Страна: США, Канада
Жанр: драма, комедия
Продолжительность: 01:59:50
Перевод: Профессиональный (полное дублирование) Лицензия--Режиссер: Алехандро Гонсалес Иньярриту
В ролях: Майкл Китон, Эдвард Нортон, Эмма Стоун, Наоми Уоттс, Зак Галифианакис, Андреа Райзборо, Эми Райан, Линдси Дункан, Дэмиэн Янг, Джереми Шамос--Описание: В центре сюжета бывший актер, некогда сыгравший роль популярного супергероя Бёрдмэна, и теперь, переступая через свое эго, он решает принять участие в новой бродвейской постановке с целью вернуть себе былую славу, блеск и величие.-- --Качество: WEB-DL
Формат: MKV
Видео кодек: H.264
Аудио кодек: AC3
Видео: 1280x690, 3886 kbps, 23.976 fps
Аудио 1: 48 KHz, 6 ch, 384 kbps (русский, дублированный)
Аудио 2: 48 KHz, 6 ch, 384 kbps (английский)
Субтитры: английские

MediaInfo

General
General
Unique ID : 145656295770063585165448281737007368620 (0x6D9461D551262B9498FF291E2BB289AC)
Complete name : /Birdman.D.2014.WEB-DL.720p.mkv
Format : Matroska
Format version : Version 4 / Version 2
File size : 3.97 GiB
Duration : 1h 59mn
Overall bit rate : 4 743 Kbps
Encoded date : UTC 2015-02-19 05:44:17
Writing application : mkvmerge v6.7.0 ('Back to the Ground') 64bit built on Jan 9 2014 18:03:17
Writing library : libebml v1.3.0 + libmatroska v1.4.1
Video
ID : 1
Format : AVC
Format/Info : Advanced Video Codec
Format profile : [email protected]
Format settings, CABAC : No
Format settings, ReFrames : 2 frames
Codec ID : V_MPEG4/ISO/AVC
Duration : 1h 59mn
Bit rate : 3 881 Kbps
Width : 1 280 pixels
Height : 690 pixels
Display aspect ratio : 1.85:1
Frame rate mode : Constant
Frame rate : 23.976 fps
Color space : YUV
Chroma subsampling : 4:2:0
Bit depth : 8 bits
Scan type : Progressive
Bits/(Pixel*Frame) : 0.183
Stream size : 3.25 GiB (82%)
Language : English
Default : Yes
Forced : No
Color primaries : BT.709
Transfer characteristics : BT.709
Matrix coefficients : BT.709
Audio #1
ID : 2
Format : AC-3
Format/Info : Audio Coding 3
Mode extension : CM (complete main)
Format settings, Endianness : Big
Codec ID : A_AC3
Duration : 1h 59mn
Bit rate mode : Constant
Bit rate : 384 Kbps
Channel(s) : 6 channels
Channel positions : Front: L C R, Side: L R, LFE
Sampling rate : 48.0 KHz
Bit depth : 16 bits
Compression mode : Lossy
Delay relative to video : 24ms
Stream size : 329 MiB (8%)
Title : DUB
Language : Russian
Default : Yes
Forced : Yes
Audio #2
ID : 3
Format : AC-3
Format/Info : Audio Coding 3
Mode extension : CM (complete main)
Format settings, Endianness : Big
Codec ID : A_AC3
Duration : 1h 59mn
Bit rate mode : Constant
Bit rate : 384 Kbps
Channel(s) : 6 channels
Channel positions : Front: L C R, Side: L R, LFE
Sampling rate : 48.0 KHz
Bit depth : 16 bits
Compression mode : Lossy
Stream size : 329 MiB (8%)
Language : English
Default : No
Forced : No
Text
ID : 4
Format : UTF-8
Codec ID : S_TEXT/UTF8
Codec ID/Info : UTF-8 Plain Text
Language : English
Default : No
Forced : No
Menu
00:00:00.000 : en:Chapter 01
00:03:27.000 : en:Chapter 02
00:07:32.000 : en:Chapter 03
00:09:07.000 : en:Chapter 04
00:12:37.000 : en:Chapter 05
00:16:51.000 : en:Chapter 06
00:19:05.000 : en:Chapter 07
00:20:19.000 : en:Chapter 08
00:25:18.000 : en:Chapter 09
00:31:42.000 : en:Chapter 10
00:36:06.000 : en:Chapter 11
00:37:09.000 : en:Chapter 12
00:42:06.000 : en:Chapter 13
00:48:45.000 : en:Chapter 14
00:53:26.000 : en:Chapter 15
00:58:26.000 : en:Chapter 16
01:03:12.000 : en:Chapter 17
01:08:24.000 : en:Chapter 18
01:12:37.000 : en:Chapter 19
01:16:55.000 : en:Chapter 20
01:20:39.000 : en:Chapter 21
01:25:07.000 : en:Chapter 22
01:27:58.000 : en:Chapter 23
01:33:15.000 : en:Chapter 24
01:39:08.000 : en:Chapter 25
01:43:03.000 : en:Chapter 26
01:46:36.000 : en:Chapter 27
01:52:09.000 : en:Chapter 28

Скриншоты







Последний раз редактировалось: lotto (2015-02-23 12:07), всего редактировалось 1 раз

Создавать темы 05-Фев-2015 17:31

[Профиль]  [ЛС] 

lotto ®

Стаж: 7 лет 9 месяцев

Сообщений: 221

Симпатии: 409

Обновил звук до лицензии.
Фильм получил 4 Оскара.
Лучший фильм, Лучший режиссер, Лучший сценарий, Лучшая работа оператора

Создавать темы 23-Фев-2015 12:05

[Профиль]  [ЛС] 

jas81

Стаж: 3 года 11 месяцев

Сообщений: 108

Симпатии: 7

За что такие награды получал не понимаю, прошлый раз "Гравитация" тоже не честно получал много статуеток..

Создавать темы 23-Фев-2015 18:53

[Профиль]  [ЛС] 

lotto ®

Стаж: 7 лет 9 месяцев

Сообщений: 221

Симпатии: 409

922042За что такие награды получал не понимаю, прошлый раз "Гравитация" тоже не честно получал много статуеток..
После этой фразы вспомнилась "Гроза" Островского.
Я говорю, отчего люди не летают так, как птицы? Знаешь, мне иногда кажется, что я птица. Когда стоишь на горе, так тебя и тянет лететь. Вот так бы разбежалась, подняла руки и полетела.

Создавать темы 25-Фев-2015 14:39

[Профиль]  [ЛС] 

Jasur_96

Стаж: 3 года 11 месяцев

Сообщений: 7

Симпатии: 1

922485
922042За что такие награды получал не понимаю, прошлый раз "Гравитация" тоже не честно получал много статуеток..
После этой фразы вспомнилась "Гроза" Островского.
Я говорю, отчего люди не летают так, как птицы? Знаешь, мне иногда кажется, что я птица. Когда стоишь на горе, так тебя и тянет лететь. Вот так бы разбежалась, подняла руки и полетела.
Ой, давайте не будем! Я тоже читаю классику и ценю тонкие фильмы, но "Бёрдмен" - фильм из категории "Ооо, Энди Уорхол, это прекрасно!!!", а никто не может внятно объяснить, почему это прекрасно. Жалко 2 часа потраченного времени. Режиссерская и операторская работа великолепны, спорить не буду. Но сюжет... А насчет наград: "Повелитель Бури" тоже почему-то получил Оскара, хотя "Аватар" был намного сильнее, и группе "Ленинград" тоже почему-то присваивали звание "Рок-группа года", хотя роком ЭТО назвать трудно.
Мне тоже вспоминается фраза из фильма "О чем говорят мужчины":
Вот в спорте все объективно! "Как-то он неконцептуально пробежал! Что же он хотел сказать своими девятью с половиной секундами?" Что ты хрен так пробежишь, только и всего!

Создавать темы 28-Фев-2015 13:20

[Профиль]  [ЛС] 

jas81

Стаж: 3 года 11 месяцев

Сообщений: 108

Симпатии: 7

Jasur_96, я с тобой согласен насчет "Повелитель Бури".. "Аватар" до сих пор на 1-ом месте по сбору денег... как можно была дат "Оскар" "ПБ".. даже не конкурент..

Создавать темы 28-Фев-2015 20:43

[Профиль]  [ЛС] 

lotto ®

Стаж: 7 лет 9 месяцев

Сообщений: 221

Симпатии: 409

Это была аллюзия.
Скажу следующие…
Человеческое сознание постоянно стремится к иллюзорности представления мироздания (предопределение нашей действительности). Однако окончательно не скатиться в пропасть мешает человеческое подсознание и инстинкты. Самый эффективный способ воздействия на личность - эмоция. Эмоциональная встряска позволяет пересмотреть личную парадигму, побуждая к эволюции наших представлений и возможностей.

Создавать темы 22-Мар-2015 13:42

[Профиль]  [ЛС] 
Показать сообщения:    
Ответить на тему

Текущее время: 23-Окт 05:35

Часовой пояс: UTC + 5



Вы не можете начинать темы
Вы не можете отвечать на сообщения
Вы не можете редактировать свои сообщения
Вы не можете удалять свои сообщения
Вы не можете голосовать в опросах
Вы не можете прикреплять файлы к сообщениям
Вы не можете скачивать файлы