Боевик Джексон / Action Jackson (Прабхудева / Prabhudheva) [2014, Индия, Боевик, комедия, WEB-DLRip] DVO

Ответить на тему
 

Suxrob89 ®

Стаж: 7 лет 1 месяц

Сообщений: 933

Симпатии: 564

-Боевик Джексон / Action Jackson-*Я криминально хорош*- Страна:Индия
Жанр: Боевик, комедия
Год выпуска: 2014
Продолжительность: 02:19:50
Перевод: Любительский (двухголосый закадровый) - DeadSno & den904
Субтитры: Есть (только песни)
Перевод и редакция: Honey&Haseena--Режиссер: Прабхудева / Prabhudheva-В ролях: Аджай Девган, Сонакши Синха, Ями Гаутам, Кунаал Рой Капур, Аарон Брамфилд, Байрон Гибсон, Сунил Шетти, Роки Верма--Описание: Он говорит лишь раз. Второй раз не повторяет. А если повторит, то враг уже не в состоянии будет это услышать. Один его удар сокрушит тысячу противников, а одно его имя заставит дрожать землю под ногами бандитов и трепетать их трусливые сердца. И в делах сердечных ему равных нет. Он оставит на дороге самого Ромео. Под его чарами не устоит даже жестокая и хладнокровная сестричка отпетого бандита. Но только чем это обернётся...- --Качество видео: WEB-DLRip
Формат видео: AVI
Видео: 704x304 (2.32:1), 25 fps, XviD build 50 ~1354 kbps avg, 0.25 bit/pixel
Аудио: 48 kHz, MPEG Layer 3, 2 ch, ~128.00 kbps
Формат субтитров: ASS ( отключаемые, отдельным файлом)

Скриншот с названием:

-

Скриншоты:

-

MI

Общее
Полное имя : D:\[Релизы]\Boevik.Dzhekson.2014.WEB-DLRip.XviD.Kolobok.soso4eg.avi
Формат : AVI
Формат/Информация : Audio Video Interleave
Размер файла : 1,46 Гбайт
Продолжительность : 2 ч. 19 м.
Общий поток : 1492 Кбит/сек
Название фильма : Action.Jackson.2014.WEB-DLRip.XviD.Kolobok.soso4eg
Режиссёр : soso4eg
Программа кодирования : VirtualDubMod 1.5.10.3 | www.virtualdub-fr.org || (build 2550/release)
Формат оригинала/Имя : Hindi
Правообладатель : специально для BitTorrent трекер RuTracker.org (ex torrents.ru)
Примечание : пер.LDVO (Колобок) по суб. Honey&Haseena
Видео
Идентификатор : 0
Формат : MPEG-4 Visual
Профиль формата : Advanced Simple@L5
Параметр BVOP формата : 2
Параметр QPel формата : Нет
Параметр GMC формата : Без точки перехода
Параметр матрицы формата : Default (MPEG)
Идентификатор кодека : XVID
Идентификатор кодека/Подсказка : XviD
Продолжительность : 2 ч. 19 м.
Битрейт : 1354 Кбит/сек
Ширина : 704 пикселя
Высота : 304 пикселя
Соотношение сторон : 2,35:1
Частота кадров : 25,000 кадров/сек
Цветовое пространство : YUV
Субдискретизация насыщенности : 4:2:0
Битовая глубина : 8 бит
Тип развёртки : Прогрессивная
Метод сжатия : С потерями
Бит/(Пиксели*Кадры) : 0.253
Размер потока : 1,32 Гбайт (91%)
Библиотека кодирования : XviD 1.2.1 (UTC 2008-12-04)
Аудио
Идентификатор : 1
Формат : MPEG Audio
Версия формата : Version 1
Профиль формата : Layer 3
Режим : Joint stereo
Расширение режима : MS Stereo
Идентификатор кодека : 55
Идентификатор кодека/Подсказка : MP3
Продолжительность : 2 ч. 19 м.
Вид битрейта : Постоянный
Битрейт : 128 Кбит/сек
Каналы : 2 канала
Частота : 48,0 КГц
Метод сжатия : С потерями
Размер потока : 128 Мбайт (9%)
Выравнивание : Соединение по промежуткам
Продолжительность промежутка : 40 мс. (1,00 видеокадр)
Время предзагрузки промежутка : 504 мс.
-

Создавать темы 06-Фев-2015 21:18

[Профиль]  [ЛС] 

mirjam77

Стаж: 3 года 7 месяцев

Сообщений: 21

спосиба

Создавать темы 07-Фев-2015 07:07

[Профиль]  [ЛС] 

Evgeny99

Стаж: 6 лет 8 месяцев

Сообщений: 82

Симпатии: 3

Как можно смотреть такие фильмы "о индийских фильмах в целом ")) лучше пересмотреть что то из старых 10 раз пересмотренных
любимых фильмах .

Создавать темы 07-Фев-2015 23:20

[Профиль]  [ЛС] 

Davron1402

Стаж: 3 года 8 месяцев

Сообщений: 136

Симпатии: 122

Хороший фильм

Создавать темы 10-Фев-2015 10:13

[Профиль]  [ЛС] 
Показать сообщения:    
Ответить на тему

Текущее время: 22-Сен 07:38

Часовой пояс: UTC + 5



Вы не можете начинать темы
Вы не можете отвечать на сообщения
Вы не можете редактировать свои сообщения
Вы не можете удалять свои сообщения
Вы не можете голосовать в опросах
Вы не можете прикреплять файлы к сообщениям
Вы не можете скачивать файлы