Неотправленное письмо (Михаил Калатозов) [1959 г., драма, мелодрама, приключения, BDRip]

Ответить на тему
 

lotto ®

Стаж: 7 лет 9 месяцев

Сообщений: 221

Симпатии: 409

Неотправленное письмо-- Год выпуска: 1959
Жанр: драма, мелодрама, приключения
Продолжительность: 01:36:19--Режиссер: Михаил Калатозов
В ролях: Татьяна Самойлова, Евгений Урбанский, Иннокентий Смоктуновский, Василий Ливанов--Описание: После долгой, напряженной работы, когда все запасы продовольствия были уже на исходе, наступали первые осенние холода и не оставалось никаких надежд, были найдены, наконец, алмазы. Но утром разметался по тайге пожар и отрезал геологам путь к лодкам с продовольствием и снаряжением. Их было четверо в пылающей тайге. И геологам надо было не только спасти друг друга, но и передать знания о найденных алмазах на Большую Землю…-- --Качество: BDRip
Формат: AVI
Видео кодек: XviD
Аудио кодек: AC3
Видео: 704x528, 1710 kbps, 23.976 fps
Аудио: 48 KHz, 1 ch, 448 kbps

MediaInfo

General
Complete name : \Неотправленное письмо.1959.BDRip.avi
Format : AVI
Format/Info : Audio Video Interleave
File size : 1.46 GiB
Duration : 1h 36mn
Overall bit rate : 2 167 Kbps
Movie name : Неотправленное письмо
Director : Михаил Калатозов / 1959
Writing application : VirtualDubMod 1.5.10.3 | www.virtualdub-fr.org || (build 2550/release)
Writing library : VirtualDubMod build 2550/release
Video
ID : 0
Format : MPEG-4 Visual
Format profile : Advanced [email protected]
Format settings, BVOP : 2
Format settings, QPel : No
Format settings, GMC : No warppoints
Format settings, Matrix : Default (MPEG)
Muxing mode : Packed bitstream
Codec ID : XVID
Codec ID/Hint : XviD
Duration : 1h 36mn
Bit rate : 1 710 Kbps
Width : 704 pixels
Height : 528 pixels
Display aspect ratio : 4:3
Frame rate : 23.976 fps
Color space : YUV
Chroma subsampling : 4:2:0
Bit depth : 8 bits
Scan type : Progressive
Compression mode : Lossy
Bits/(Pixel*Frame) : 0.192
Stream size : 1.15 GiB (79%)
Writing library : XviD 64
Audio
ID : 1
Format : AC-3
Format/Info : Audio Coding 3
Mode extension : CM (complete main)
Format settings, Endianness : Big
Codec ID : 2000
Duration : 1h 36mn
Bit rate mode : Constant
Bit rate : 448 Kbps
Channel(s) : 1 channel
Channel positions : Front: C
Sampling rate : 48.0 KHz
Bit depth : 16 bits
Compression mode : Lossy
Stream size : 309 MiB (21%)
Alignment : Split accross interleaves
Interleave, duration : 42 ms (1.00 video frame)
Interleave, preload duratio : 500 ms

Скриншоты





Создавать темы 07-Фев-2015 10:23

[Профиль]  [ЛС] 
Показать сообщения:    
Ответить на тему

Текущее время: 23-Окт 00:26

Часовой пояс: UTC + 5



Вы не можете начинать темы
Вы не можете отвечать на сообщения
Вы не можете редактировать свои сообщения
Вы не можете удалять свои сообщения
Вы не можете голосовать в опросах
Вы не можете прикреплять файлы к сообщениям
Вы не можете скачивать файлы