Вторжение похитителей тел / Invasion of the Body Snatchers (Дон Сигел) [1955 г., ужасы, фантастика, BDRip] MVO + Original + Sub (Rus, Eng)

Ответить на тему
 

lotto ®

Стаж: 7 лет 10 месяцев

Сообщений: 221

Симпатии: 409

Вторжение похитителей тел / Invasion of the Body Snatchers
«The original Black & White classic»
-- Год выпуска: 1955
Страна: США
Жанр: ужасы, фантастика
Продолжительность: 01:20:41
Перевод: Профессиональный (многоголосый, закадровый)--Режиссер: Дон Сигел
В ролях: Кевин МакКарти, Дана Уинтер, Ларри Гейтс, Кинг Донован, Кэролин Джонс, Джин Уиллз, Ральф Думке, Вирджиния Кристин, Том Фадден, Кеннет Паттерсон--Описание: Врач из маленького калифорнийского городка обеспокоен растущим количеством пациентов, утверждающих, что перестали узнавать своих близких: люди становятся равнодушными, бесчувственными.
Начав расследование, он обнаруживает, что речь идет о двойниках, создаваемых загадочными космическими пришельцами, планирующими завоевание Земли. Спасётся ли врач, помешает ли методичной поступи невидимых и неуязвимых захватчиков — зрители не узнают до самой последней минуты.-- --Качество: BDRip
Формат: AVI
Видео кодек: XviD
Аудио кодек: AC3
Видео: 704x352, 2279 kbps, 23.976 fps
Аудио 1: 48 KHz, 2 ch, 192 kbps (русский, многоголосый)
Аудио 2: 48 KHz, 1 ch, 96 kbps (английский)
Субтитры: русские, английские

MediaInfo

General
Complete name : \Invasion of the Body Snatchers.1955.BDRip.avi
Format : AVI
Format/Info : Audio Video Interleave
File size : 1.45 GiB
Duration : 1h 20mn
Overall bit rate : 2 579 Kbps
Video
ID : 0
Format : MPEG-4 Visual
Format profile : Advanced [email protected]
Format settings, BVOP : 1
Format settings, QPel : No
Format settings, GMC : No warppoints
Format settings, Matrix : Custom
Codec ID : XVID
Codec ID/Hint : XviD
Duration : 1h 20mn
Bit rate : 2 279 Kbps
Width : 704 pixels
Height : 352 pixels
Display aspect ratio : 2.000
Frame rate : 23.976 fps
Color space : YUV
Chroma subsampling : 4:2:0
Bit depth : 8 bits
Scan type : Progressive
Compression mode : Lossy
Bits/(Pixel*Frame) : 0.384
Stream size : 1.28 GiB (88%)
Writing library : XviD 65
Audio #1
ID : 1
Format : AC-3
Format/Info : Audio Coding 3
Mode extension : CM (complete main)
Format settings, Endianness : Big
Codec ID : 2000
Duration : 1h 20mn
Bit rate mode : Constant
Bit rate : 192 Kbps
Channel(s) : 2 channels
Channel positions : Front: L R
Sampling rate : 48.0 KHz
Bit depth : 16 bits
Compression mode : Lossy
Stream size : 111 MiB (7%)
Alignment : Aligned on interleaves
Interleave, duration : 64 ms (1.53 video frames)
Interleave, preload duration : 192 ms
Title : MVO RUS
Audio #2
ID : 2
Format : AC-3
Format/Info : Audio Coding 3
Mode extension : CM (complete main)
Format settings, Endianness : Big
Codec ID : 2000
Duration : 1h 20mn
Bit rate mode : Constant
Bit rate : 96.0 Kbps
Channel(s) : 2 channels
Channel(s)_Original : 1 channel
Channel positions : Front: C
Sampling rate : 48.0 KHz
Bit depth : 16 bits
Compression mode : Lossy
Stream size : 55.4 MiB (4%)
Alignment : Aligned on interleaves
Interleave, duration : 64 ms (1.53 video frames)
Interleave, preload duration : 192 ms
Title : ENG
Text #1
ID : 3
Format : SubRip
Duration : 1h 20mn
Bit rate : 188 bps
Compression mode : Lossless
Stream size : 111 KiB (0%)
Title : RUS
Text #2
ID : 4
Format : SubRip
Duration : 1h 20mn
Bit rate : 145 bps
Compression mode : Lossless
Stream size : 85.8 KiB (0%)
Title : ENG

Скриншоты





Создавать темы 08-Фев-2015 13:08

[Профиль]  [ЛС] 
Показать сообщения:    
Ответить на тему

Текущее время: 21-Ноя 13:15

Часовой пояс: UTC + 5



Вы не можете начинать темы
Вы не можете отвечать на сообщения
Вы не можете редактировать свои сообщения
Вы не можете удалять свои сообщения
Вы не можете голосовать в опросах
Вы не можете прикреплять файлы к сообщениям
Вы не можете скачивать файлы