Кладбище домашних животных / Pet Sematary (Мэри Ламберт / Mary Lambert) [1989 г., ужасы, фэнтези, BDRip-AVC] MVO + Original (Eng) + Sub (Rus, Eng)

Ответить на тему
 

kat222000 ®

Стаж: 6 лет 4 месяца

Сообщений: 608

Симпатии: 1055

-Кладбище домашних животных / Pet Sematary«Иногда Смерть Лучше Жизни»-Год выпуска: 1989
Страна: США
Жанр: ужасы, фэнтези
Продолжительность: 01:42:45
Перевод: Профессиональный (многоголосый, закадровый) |Киномания| + Оригинальная звуковая дорожка (английская)
Субтитры: русские, английские (*.srt, отключаемые)
Навигация по главам: есть-Режиссер: Мэри Ламберт / Mary Lambert-В ролях: Дэйл Мидкифф, Фред Гуинн, Дениз Кросби, Брэд Гринквист, Майкл Ломбард, Мико Хьюз, Блэйз Бердаль, Сьюзан Бломмарт, Мара Кларк, Кави Раз-Описание: Доктор Луис Крид переезжает в маленький городок, где его семью ждет большой дом, а самого Луиса — скромная должность лечащего врача местного колледжа. Новая, просторная обитель четы Кридов расположена на краю густого, величественного леса. А в самом лесу — маленькое и мрачное кладбище, где местные жители хоронят своих домашних животных.
Несчастье приходит и в дом Кридов: кот Черч, домашний любимец, по нелепой случайности попадает под колеса грузовика. Гибель Черча повергает семью доктора в шок, и Луис решается на отчаянный шаг. Он хоронит кота на древнем, заброшенном индейском кладбище, обладающем, по легенде, таинственной воскрешающей силой. И однажды ночью погибший кот возвращается к хозяевам…- -Возраст: зрителям, достигшим 18 лет-Рейтинг MPAA: лицам до 17 лет обязательно присутствие взрослого-Качество: BDRip-AVC
Формат: MKV
Видео кодек: AVC
Аудио кодек: AC3
Видео: 1024x576 (1.78:1), 23.976 fps, [email protected] ~3218 kbps avg, 0.228 bit/pixel
Аудио #1: 48 kHz, AC3, 3/2 (L,C,R,l,r) + LFE ch, ~384.00 kbps avg |Многоголосый закадровый, Киномания|
Аудио #2: 48 kHz, AC3 Dolby Digital, 3/2 (L,C,R,l,r) + LFE ch, ~448 kbps |Оригинальная звуковая дорожка|-

Рейтинг R

Рейтинг R получают фильмы, в содержании которых обязательно содержится материал, предназначенный только для взрослой аудитории. Родителям рекомендуется хорошо подумать, прежде чем посмотреть такой фильм вместе со своими детьми.
Фильм, получивший рейтинг R, скорее всего содержит сексуальные сцены, эпизоды с употреблением наркотиков, нецензурную брань, фрагменты с насилием и т.д.
-

...из книги «3500 кинорецензий»

Луис Крид, который переехал с собственной семьёй в особняк у шоссе, неподалёку от кладбища домашних животных, всё-таки теряет, несмотря на предостережения, своего маленького сына Кейджа, попавшего под грузовик, и к тому же хоронит его на индейском кладбище в горах, откуда мёртвые возвращаются в качестве злых призраков.
Очередная история Стивена Кинга (наверно, он — самый экранизируемый писатель в мире), превращённая им самим в сценарий, была использована женщиной-режиссёром Мэри Лэмберт, которая ранее снимала абсолютно другое — рок-видеоклипы, интеллектуально-эстетскую криминальную фантазию «Сиеста» (1987). Но ряд тревожных и пугающих моментов всё же не могут поддержать устойчивый интерес к картине, которая временами кажется не очень умелой или по-детски безыскусной и наивной, как выведенное чьей-то ребячьей ручонкой слово sematary вместо cemetery на кладбищенском камне. Однако лента «Клатбеще домашних животных» (пожалуй, так и следует переводить это название — намеренно неграмотно) неожиданно пользовалась большим успехом и в США, где почти сравнялась по доходам с самой кассовой экранизацией Кинга — «Сияние», и в Европе (на фестивале фантастики и фильмов ужаса в Авориазе в 1990 году она получила премию зрителей).
1990
-

Скриншоты



-

MI

General
Unique ID : 209329736681350040241697640567221455169 (0x9D7B70D9170B1CE28985D6BAF2470941)
Format : Matroska
Format version : Version 4 / Version 2
File size : 2.91 GiB
Duration : 1h 42mn
Overall bit rate : 4 051 Kbps
Movie name : Кладбище домашних животных / Pet Sematary (1989)
Encoded date : UTC 2010-02-22 21:41:31
Writing application : mkvmerge v5.9.0 ('On The Loose') built on Dec 9 2012 15:37:01
Writing library : libebml v1.3.0 + libmatroska v1.4.0
Video
ID : 1
Format : AVC
Format/Info : Advanced Video Codec
Format profile : [email protected]
Format settings, CABAC : Yes
Format settings, ReFrames : 12 frames
Codec ID : V_MPEG4/ISO/AVC
Duration : 1h 42mn
Bit rate : 3 218 Kbps
Width : 1 024 pixels
Height : 576 pixels
Display aspect ratio : 16:9
Frame rate mode : Constant
Frame rate : 23.976 fps
Color space : YUV
Chroma subsampling : 4:2:0
Bit depth : 8 bits
Scan type : Progressive
Bits/(Pixel*Frame) : 0.228
Stream size : 2.25 GiB (77%)
Title : HQCLUB by Deep Fusion
Writing library : x264 core 129 r2230 1cffe9f
Encoding settings : cabac=1 / ref=12 / deblock=1:-3:-2 / analyse=0x3:0x113 / me=umh / subme=11 / psy=1 / psy_rd=1.09:0.04 / mixed_ref=1 / me_range=64 / chroma_me=1 / trellis=2 / 8x8dct=1 / cqm=0 / deadzone=21,11 / fast_pskip=0 / chroma_qp_offset=-5 / threads=6 / lookahead_threads=1 / sliced_threads=0 / nr=0 / decimate=1 / interlaced=0 / bluray_compat=0 / constrained_intra=0 / bframes=11 / b_pyramid=2 / b_adapt=2 / b_bias=0 / direct=1 / weightb=1 / open_gop=0 / weightp=2 / keyint=230 / keyint_min=23 / scenecut=40 / intra_refresh=0 / rc_lookahead=60 / rc=2pass / mbtree=0 / bitrate=3218 / ratetol=1.0 / qcomp=0.60 / qpmin=10 / qpmax=69 / qpstep=4 / cplxblur=20.0 / qblur=0.5 / vbv_maxrate=62500 / vbv_bufsize=50000 / nal_hrd=none / ip_ratio=1.40 / pb_ratio=1.30 / aq=1:0.70
Language : English
Default : Yes
Forced : No
Audio #1
ID : 2
Format : AC-3
Format/Info : Audio Coding 3
Mode extension : CM (complete main)
Format settings, Endianness : Big
Codec ID : A_AC3
Duration : 1h 42mn
Bit rate mode : Constant
Bit rate : 384 Kbps
Channel(s) : 6 channels
Channel positions : Front: L C R, Side: L R, LFE
Sampling rate : 48.0 KHz
Bit depth : 16 bits
Compression mode : Lossy
Stream size : 282 MiB (9%)
Title : Профессиональный (многоголосый, закадровый) |Киномания|
Language : Russian
Default : Yes
Forced : No
Audio #2
ID : 3
Format : AC-3
Format/Info : Audio Coding 3
Mode extension : CM (complete main)
Format settings, Endianness : Big
Codec ID : A_AC3
Duration : 1h 42mn
Bit rate mode : Constant
Bit rate : 448 Kbps
Channel(s) : 6 channels
Channel positions : Front: L C R, Side: L R, LFE
Sampling rate : 48.0 KHz
Bit depth : 16 bits
Compression mode : Lossy
Stream size : 329 MiB (11%)
Title : Оригинальная звуковая дорожка (английская)
Language : English
Default : No
Forced : No
Text #1
ID : 4
Format : UTF-8
Codec ID : S_TEXT/UTF8
Codec ID/Info : UTF-8 Plain Text
Title : русские (полные)
Language : Russian
Default : No
Forced : No
Text #2
ID : 5
Format : UTF-8
Codec ID : S_TEXT/UTF8
Codec ID/Info : UTF-8 Plain Text
Title : английские (полные)
Language : English
Default : No
Forced : No
Menu
00:00:00.000 : en:Chapter 01
00:03:04.183 : en:Chapter 02
00:09:57.887 : en:Chapter 03
00:17:25.127 : en:Chapter 04
00:25:07.255 : en:Chapter 05
00:33:45.940 : en:Chapter 06
00:40:50.531 : en:Chapter 07
00:44:18.697 : en:Chapter 08
00:47:38.522 : en:Chapter 09
00:53:32.542 : en:Chapter 10
01:00:08.938 : en:Chapter 11
01:09:11.939 : en:Chapter 12
01:16:45.100 : en:Chapter 13
01:21:37.975 : en:Chapter 14
01:26:33.062 : en:Chapter 15
01:28:28.469 : en:Chapter 16
01:30:20.247 : en:Chapter 17
01:35:37.898 : en:Chapter 18
01:39:35.594 : en:Chapter 19
- - -

Создавать темы 08-Фев-2015 16:36

[Профиль]  [ЛС] 

umka-0376

Стаж: 6 лет 9 месяцев

Сообщений: 9

Thanks

Создавать темы 23-Фев-2015 17:40

[Профиль]  [ЛС] 
Показать сообщения:    
Ответить на тему

Текущее время: 19-Авг 21:43

Часовой пояс: UTC + 5



Вы не можете начинать темы
Вы не можете отвечать на сообщения
Вы не можете редактировать свои сообщения
Вы не можете удалять свои сообщения
Вы не можете голосовать в опросах
Вы не можете прикреплять файлы к сообщениям
Вы не можете скачивать файлы