Аускультация сердца и легких (часть 2) [RUS, MP3, 2010]

Ответить на тему
 

samsunger ®

Стаж: 5 лет 3 месяца

Сообщений: 332

Симпатии: 19

Аускультация сердца и легких (часть 2)
Год выпуска: 2010
Автор: Неизвестен
Жанр: Медицина/Пропедевтика
Издательство: Неизвестно
Язык: Русский
Описание: Здесь представлены аудиоматериалы по аускультации сердца и легких:
Наш девиз:
Не будь бобром,
Делись добром!
И не забывайте про опросник, насяльника! Правильный ответ в аудио-данных

Аудио-данные

Аускультация легких
General
Format : MPEG Audio
Duration : 28mn 15s
Overall bit rate mode : Constant
Overall bit rate : 192 Kbps
Performer : pulmon
Genre : Other
Writing library : LAME3.96.1
Audio
Format : MPEG Audio
Format version : Version 1
Format profile : Layer 3
Duration : 28mn 18s
Bit rate mode : Constant
Bit rate : 192 Kbps
Channel(s) : 2 channels
Sampling rate : 44.1 KHz
Compression mode : Lossy
Stream size : 38.8 MiB (100%)
Writing library : LAME3.96.1
Аускультация сердца
General
Format : MPEG Audio
File size : 37.6 MiB
Duration : 27mn 24s
Overall bit rate mode : Constant
Overall bit rate : 192 Kbps
Performer : cor
Genre : Other
Writing library : LAME3.96.1ЄЄЄЄЄЄЄЄЄЄ
Audio
Format : MPEG Audio
Format version : Version 1
Format profile : Layer 3
Duration : 27mn 27s
Bit rate mode : Constant
Bit rate : 192 Kbps
Channel(s) : 2 channels
Sampling rate : 44.1 KHz
Compression mode : Lossy
Stream size : 37.6 MiB (100%)
Writing library : LAME3.96.1ЄЄЄЄЄЄЄЄЄЄ
Правильный ответ - Годфри Хаунсфильд

Создавать темы 08-Фев-2015 17:33

[Профиль]  [ЛС] 
Показать сообщения:    
Ответить на тему

Текущее время: 23-Авг 22:18

Часовой пояс: UTC + 5



Вы не можете начинать темы
Вы не можете отвечать на сообщения
Вы не можете редактировать свои сообщения
Вы не можете удалять свои сообщения
Вы не можете голосовать в опросах
Вы не можете прикреплять файлы к сообщениям
Вы не можете скачивать файлы