Исчезновение / VANish ( Брайан Бокбрэдер) [2015 г., DVDRip]

Ответить на тему
 

Davron1402 ®

Стаж: 3 года 8 месяцев

Сообщений: 136

Симпатии: 122

Исчезновение / VANish
Год выпуска: 2015
Страна: США
Жанр: ужасы, боевик, триллер
Продолжительность: 01:19:17
Перевод: Любительский (одноголосный)
Режиссер: Брайан Бокбрэдер
Сценарий: Брайан Бокбрэдер
Продюсер: Брайан Бокбрэдер, Лена Бэнкс, Томас Фриман, ...
Оператор: Колби Оливер
Художник: Коуди Диркс, Джессика Маурицио
Монтаж: Рубен Себбан
В ролях: • Майра Уолш
• Тони Тодд
• Дэнни Трехо
• Bryan Bockbrader
• Адам Гатри
• Денис Дорадо
• Эсперанса Диас
• Анджела Робитейлл
• Джо Дэвис
• Майкл Мендоза
Описание: Похищенная молодая девушка едет в фургоне с полными отморозками. Парни даже и не предполагали что вот так всё обернется, узнав что эта девушка дочь мексиканского наркобарона.
Качество: DVD.Rip
Формат: mp4 (MPEG-4)
Видео кодек: AVC
Аудио кодек: AAC
Видео: AVC, 720 x 304 (2.35:1), 24.000 fps, 766 Kbps
Аудио:AAC, 48.0 KHz, 2 channels, 129 Kbps

MI

Расположение: D:\Клипы\Russ\vanish.mp4
Имя файла: vanish.mp4
Формат файла: .mp4 (MPEG-4)
Размер файла: 509.93 MB
Длительность: 1h 19mn
Навигация по главам: Нет
Bitrate (все потоки): 899 Kbps
Тип битрейта (все потоки): Variable
Файл создан...: UTC 2015-02-07 15:08:12
Название: vanish
Тип потока: Видео
Длительность: 01:19:17
Кодек: AVC
Кодек/Профиль: [email protected]
Кодек/ID: avc1
Кодек/CABAC: No
Кодек/ReFrames: 1 frame
Размеры изображения: 720 x 304 (2.35:1)
Частота кадров: 24.000 fps
Размер потока: 434 MiB (85%)
Битрейт: 766 Kbps
Битрейт/макс: 1 152 Kbps
Битрейт/тип: VBR
Цветовое пространство: YUV
Тип развёртки: Progressive
Глубина: 8 bits
Тип потока: Звук #1
Язык: English
Длительность: 01:19:17.248
Кодек: AAC
Кодек/Профиль: LC
Кодек/ID: 40
Частота дискретизации: 48.0 KHz
Каналов: 2 channels
Битрейт: 129 Kbps
Битрейт/тип: Constant
Размер потока: 72.9 MiB (14%)
Метод сжатия: Lossy

Скриншоты





Создавать темы 09-Фев-2015 11:02

[Профиль]  [ЛС] 

giga

Стаж: 5 лет 3 месяца

Сообщений: 192

Симпатии: 22

прикольный фильм, если в качестве и с лицензионным переводом выйдет обязаательно скачаю

Создавать темы 09-Фев-2015 12:02

[Профиль]  [ЛС] 

Stepawka

Стаж: 4 года 8 месяцев

Сообщений: 6

Симпатии: 2

туфтовый фильм

Создавать темы 09-Фев-2015 15:50

[Профиль]  [ЛС] 

Islam_94

Стаж: 3 года 8 месяцев

Сообщений: 5

вообще ненавижу дэнни трехо.

Создавать темы 09-Фев-2015 17:01

[Профиль]  [ЛС] 

Davron1402 ®

Стаж: 3 года 8 месяцев

Сообщений: 136

Симпатии: 122

вообще ненавижу дэнни трехо.
Дэнни Трехо в последние годы, гребут сниматься в трэше на ура. Он наперёд уже 30 фильмов отыграл, ведь, 70 лет уже.

Создавать темы 09-Фев-2015 20:08

[Профиль]  [ЛС] 

Davron1402 ®

Стаж: 3 года 8 месяцев

Сообщений: 136

Симпатии: 122

Интересного просмотра

Создавать темы 09-Фев-2015 20:10

[Профиль]  [ЛС] 

Davron1402 ®

Стаж: 3 года 8 месяцев

Сообщений: 136

Симпатии: 122

Исчезновение / VANish (2015)
просмотров: 1691

Создавать темы 09-Фев-2015 20:22

[Профиль]  [ЛС] 

drunkenstein

Стаж: 4 года 11 месяцев

Сообщений: 6

Симпатии: 1

Спосиба

Создавать темы 09-Фев-2015 22:42

[Профиль]  [ЛС] 
Показать сообщения:    
Ответить на тему

Текущее время: 23-Сен 01:46

Часовой пояс: UTC + 5



Вы не можете начинать темы
Вы не можете отвечать на сообщения
Вы не можете редактировать свои сообщения
Вы не можете удалять свои сообщения
Вы не можете голосовать в опросах
Вы не можете прикреплять файлы к сообщениям
Вы не можете скачивать файлы