Воскресенья в Виль-д'Эвре / Les dimanches de Ville d'Avray (Серж Бургиньон) [1962 г., драма, DVDRip] 2 MVO (НТВ+, Пятый канал) + Original

Ответить на тему
 

lotto ®

Стаж: 7 лет 10 месяцев

Сообщений: 221

Симпатии: 409

Воскресенья в Виль-д'Эвре / Les dimanches de Ville d'Avray
Год выпуска: 1962
Страна: Франция, Австрия
Жанр: драма
Продолжительность: 01:46:15
Перевод: Профессиональный (многоголосый, закадровый)--Режиссер: Серж Бургиньон
В ролях: Харди Крюгер, Николь Курсель, Патриция Гоцци, Даниэль Ивернель, Андре Умански, Анн-Мари Коффине, Рене Клермон, Малка Рибовска, Мишель де Ри, Френс Англаде--Описание: Пьер — летчик-истребитель. Во время бомбежки во Вьетнаме он убил ребенка, и с тех пор страдает от частичной амнезии и скрытой депрессии. Он живет в Париже, постепенно превращаясь в амебу, пока не встречает двенадцатилетнюю девочку из интерната. Они начинают видеться каждое воскресенье, и Пьер, общаясь с ней, пытается восстановить память. Но их дружба вызывает подозрения у окружающих, даже у тех, кто хорошо знает Пьера.-- --Качество: DVDRip
Формат: AVI
Видео кодек: XviD
Аудио кодек: MP3
Видео: 720x304, 1563 kbps, 25 fps
Аудио 1: 48 kHz, 2 ch, 128.00 kbps (русский, многоголосый) НТВ+
Аудио 1: 48 kHz, 2 ch, 128.00 kbps (русский, многоголосый) Пятый канал
Аудио 1: 48 kHz, 2 ch, 128.00 kbps (французский)

MediaInfo

General
Complete name : ]\Voskresenja.v.Vil-DJevre.1962.DVDRip.Rus.Fr.avi
Format : AVI
Format/Info : Audio Video Interleave
File size : 1.46 GiB
Duration : 1h 46mn
Overall bit rate : 1 966 Kbps
Movie name : Les Dimanches de Ville d'Avray
Director : Serge Bourguignon
Writing application : VirtualDubModRus 1.5.10.2 (build 2540/release)
Comment : DVDRip.by.Polinka
Video
ID : 0
Format : MPEG-4 Visual
Format profile : Advanced [email protected]
Format settings, BVOP : 2
Format settings, QPel : No
Format settings, GMC : No warppoints
Format settings, Matrix : Default (MPEG)
Muxing mode : Packed bitstream
Codec ID : XVID
Codec ID/Hint : XviD
Duration : 1h 46mn
Bit rate : 1 563 Kbps
Width : 720 pixels
Height : 304 pixels
Display aspect ratio : 2.35:1
Frame rate : 25.000 fps
Color space : YUV
Chroma subsampling : 4:2:0
Bit depth : 8 bits
Scan type : Progressive
Compression mode : Lossy
Bits/(Pixel*Frame) : 0.286
Stream size : 1.16 GiB (79%)
Writing library : XviD 1.1.2 (UTC 2006-11-01)
Audio #1
ID : 1
Format : MPEG Audio
Format version : Version 1
Format profile : Layer 3
Mode : Joint stereo
Mode extension : MS Stereo
Codec ID : 55
Codec ID/Hint : MP3
Duration : 1h 46mn
Bit rate mode : Constant
Bit rate : 128 Kbps
Channel(s) : 2 channels
Sampling rate : 48.0 KHz
Compression mode : Lossy
Stream size : 97.3 MiB (7%)
Alignment : Aligned on interleaves
Interleave, duration : 40 ms (1.00 video frame)
Interleave, preload duration : 504 ms
Audio #2
ID : 2
Format : MPEG Audio
Format version : Version 1
Format profile : Layer 3
Mode : Joint stereo
Mode extension : MS Stereo
Codec ID : 55
Codec ID/Hint : MP3
Duration : 1h 46mn
Bit rate mode : Constant
Bit rate : 128 Kbps
Channel(s) : 2 channels
Sampling rate : 48.0 KHz
Compression mode : Lossy
Stream size : 97.3 MiB (7%)
Alignment : Aligned on interleaves
Interleave, duration : 40 ms (1.00 video frame)
Interleave, preload duration : 504 ms
Audio #3
ID : 3
Format : MPEG Audio
Format version : Version 1
Format profile : Layer 3
Mode : Joint stereo
Mode extension : MS Stereo
Codec ID : 55
Codec ID/Hint : MP3
Duration : 1h 46mn
Bit rate mode : Constant
Bit rate : 128 Kbps
Channel(s) : 2 channels
Sampling rate : 48.0 KHz
Compression mode : Lossy
Stream size : 97.3 MiB (7%)
Alignment : Aligned on interleaves
Interleave, duration : 40 ms (1.00 video frame)
Interleave, preload duration : 504 ms
Writing library : LAME3.98.2

Скриншоты





Создавать темы 10-Фев-2015 12:50

[Профиль]  [ЛС] 
Показать сообщения:    
Ответить на тему

Текущее время: 19-Ноя 06:24

Часовой пояс: UTC + 5



Вы не можете начинать темы
Вы не можете отвечать на сообщения
Вы не можете редактировать свои сообщения
Вы не можете удалять свои сообщения
Вы не можете голосовать в опросах
Вы не можете прикреплять файлы к сообщениям
Вы не можете скачивать файлы