Специалист | WordPress. Уровень 2. Разработка и управление сайтом (2013) [PCRec] [2013 г.]

Ответить на тему
 

Wanderings ®

Стаж: 3 года 11 месяцев

Сообщений: 95

Симпатии: 95

Специалист | WordPress. Уровень 2. Разработка и управление сайтом (2013) [PCRec] --Автор (режиссер): Специалист
Жанр: WEB
Продолжительность: 11:41:55
Качество видео: PCRec
Видеокодек: AVC
Битрейт видео: ~192 Кбит/сек
Размер кадра: 1020x764
Аудиокодек: AAC
Битрейт аудио: 192 Кбит/сек, 2 Ch, 48,0 КГц
Описание:В курсе рассматриваются вопросы развертывания, разработки тем и использования плагинов для WordPress.
Для многих пользователей WordPress стала наиболее удобной системой управления контентом (CMS) с открытым кодом (когда код разработки доступен для изменения и просмотра и обычно бесплатен). С каждым днем сфера ее применения расширяется от блогов до корпоративных сайтов и сложных информационных порталов.
Согласно данным отчета, опубликованного компанией WordPress, на сегодняшний день WordPress обеспечивает работу 14,7% из миллиона самых популярных веб-сайтов по всему миру. Год назад эта цифра составляла 8,5%. Кроме того, 22 из каждых 100 новых сайтов в США используют для работы WordPress.--

Дополнительная информация:

Данная статистика касается не только отдельных сайтов на основе CMS WordPress, но также и ресурсов на блог-платформе WordPress.com. Благодаря открытому исходному коду WordPress стала поистине уникальной CMS-системой для разработчиков. Тысячи беспалтных плагинов с открытым исходным кодом позволяют разработчиками комбинировать их в совершенно невообразимых сочетаниях, получая эффективную и простую в управлении систему администрирования сайта.
Курс предназначен для широкого круга пользователей, которые хотят научиться создавать сайт на свой вкус и цвет.

Цель курса:

Курс «WordPress. Уровень 2. Разработчик» рассматривает вопросы по разработке веб-приложений на базе CMS-системы WordPress. На курсе Вы научитесь развертывать WordPress на сервере, разрабатывать темы оформления сайта, использовать плагины, а также изнутри узнаете как функционирует API WordPress.

По окончании курса Вы будете уметь

Развертывать WordPress на сервере;
Разрабатывать темы оформления для WordPress;
Устанавливать и использовать плагины;
Использовать All In One SEO;
Использовать функции API WordPress.

Программа курса WordPress. Уровень 2. Разработка и управление сайтом

Модуль 1. Развертывание WordPress на сервере
- Требование к серверу
- Подготовка сервера
- Развертывание WordPress
- Лабораторная работа: развертывание WordPress
- Изучение структуры WordPress
- Резервное копирование и восстановление данных
- Лабораторная работа: резервное копирование данных-Модуль 2. Разработка темы WordPress
- Понятие тем оформления
- Использование нескольких тем и переключение между ними
- Макетирование темы
- Лабораторная работа: макет дизайна
- Структура темы
- Назначение отдельных файлов
- Проектирование и верстка темы
- Лабораторная работа: создание своей темы-Модуль 3. Плагины WordPress
- Назначение плагинов WordPress
- Расположение плагинов
- Обзор наиболее популярных плагинов
- Лабораторная работа: Установка плагинов
- Плагины для аналитики и статистики
- Плагины SEO
- Другие полезные плагины
- Лабораторная работа: Использование AllInOneSEO-Модуль 4. Знакомство с API WordPress
- Обзор API WordPress
- Изучение основных функций и документации
- Функции для работы с записями
- Функции для работы с комментариями
- Функции для работы с данными пользователя
- Лабораторная работа: Изменение аватаров авторов и пользователей в записи
- Подведение итогов курса
-

Отчет MediaInfo

Общее
Полное имя : G:\Специалист - WordPress. Уровень 2. Разработка и управление сайтом (2013)\1_1.mp4
Формат : MPEG-4
Профиль формата : Base Media / Version 2
Идентификатор кодека : mp42
Размер файла : 897 Мбайт
Продолжительность : 2 ч. 7 м.
Общий поток : 986 Кбит/сек
Дата кодирования : UTC 2013-03-16 21:51:01
Дата пометки : UTC 2013-03-16 21:51:32
©TIM : 00:00:00:00
©TSC : 30000
©TSZ : 1001
Видео
Идентификатор : 1
Формат : AVC
Формат/Информация : Advanced Video Codec
Профиль формата : [email protected]
Параметр CABAC формата : Да
Параметр ReFrames формата : 3 кадра
Параметр GOP формата : M=4, N=29
Идентификатор кодека : avc1
Идентификатор кодека/Информация : Advanced Video Coding
Продолжительность : 2 ч. 7 м.
Продолжительность оригинала : 2 ч. 7 м.
Битрейт : 794 Кбит/сек
Ширина : 1020 пикселей
Высота : 764 пикселя
Соотношение сторон : 4:3
Режим частоты кадров : Переменный
Частота кадров : 29,970 кадров/сек
Минимальная частота кадров : 29,970 кадров/сек
Максимальная частота кадров : 30,000 кадров/сек
Стандарт вещания : PAL
Цветовое пространство : YUV
Субдискретизация насыщенности : 4:2:0
Битовая глубина : 8 бит
Тип развёртки : Прогрессивная
Бит/(Пиксели*Кадры) : 0.034
Размер потока : 723 Мбайт (81%)
Размер потока оригинала : 723 Мбайт (81%)
Язык : English
Дата кодирования : UTC 2013-03-16 21:51:01
Дата пометки : UTC 2013-03-16 21:51:01
mdhd_Duration : 7634894
Аудио
Идентификатор : 2
Формат : AAC
Формат/Информация : Advanced Audio Codec
Профиль формата : LC
Идентификатор кодека : 40
Продолжительность : 2 ч. 7 м.
Продолжительность оригинала : 2 ч. 7 м.
Вид битрейта : Постоянный
Битрейт : 192 Кбит/сек
Каналы : 2 канала
Расположение каналов : Front: L R
Частота : 48,0 КГц
Метод сжатия : С потерями
Размер потока : 172 Мбайт (19%)
Размер потока оригинала : 172 Мбайт (19%)
Язык : English
Дата кодирования : UTC 2013-03-16 21:51:01
Дата пометки : UTC 2013-03-16 21:51:01
mdhd_Duration : 7634966

Скриншоты

Создавать темы 10-Фев-2015 22:21

[Профиль]  [ЛС] 

Wanderings ®

Стаж: 3 года 11 месяцев

Сообщений: 95

Симпатии: 95

Уровень 1 тут https://tas-ix.net/viewtopic.php?t=103390

Создавать темы 10-Фев-2015 22:36

[Профиль]  [ЛС] 

hulki

Стаж: 3 года 10 месяцев

Сообщений: 75

Симпатии: 8

спасибо)

Создавать темы 11-Фев-2015 08:25

[Профиль]  [ЛС] 

Wanderings ®

Стаж: 3 года 11 месяцев

Сообщений: 95

Симпатии: 95

hulki, Пользуйтесь на здоровье))

Создавать темы 11-Фев-2015 13:27

[Профиль]  [ЛС] 

bahriddin17

Стаж: 4 года 6 месяцев

Сообщений: 13

Всё хорошо. Но скорость отсутвует. :(

Создавать темы 23-Май-2015 16:15

[Профиль]  [ЛС] 

Боксер

Стаж: 2 года 3 месяца

Сообщений: 54

Симпатии: 34

Спс

Создавать темы 17-Сен-2015 12:26

[Профиль]  [ЛС] 

asone

Стаж: 4 года 6 месяцев

Сообщений: 2

Есть кто-нибудь на раздаче?Скорость то появляется,то исчезает.33 процента скачалось,все никак не докачаю

Создавать темы 08-Апр-2017 17:22

[Профиль]  [ЛС] 
Показать сообщения:    
Ответить на тему

Текущее время: 19-Ноя 17:11

Часовой пояс: UTC + 5



Вы не можете начинать темы
Вы не можете отвечать на сообщения
Вы не можете редактировать свои сообщения
Вы не можете удалять свои сообщения
Вы не можете голосовать в опросах
Вы не можете прикреплять файлы к сообщениям
Вы не можете скачивать файлы