Боже, помоги девушке / God Help the Girl (Стюарт Мердок) [2014 г., Мюзикл, Драма, Мелодрама, L1, HDRip]

Ответить на тему
 

bbk ®

Стаж: 7 лет

Сообщений: 435

Симпатии: 479

Боже, помоги девушке / God Help the Girl
Год выпуска: 2014
Страна: Великобритания
Жанр: Мюзикл, Драма, Мелодрама
Продолжительность: 01:51:31
Перевод: Любительский (одноголосый) [Игорь Фролов ака Lord32x]
Режиссер: Стюарт Мердок
В ролях: Эмили Браунинг, Олли Александр, Ханна Мюррэй, Пьер Буланжер, Кора Биссет, Энн Скотт-Джонс, Джози Лонг
Описание: Ева — девушка, проходящая курс лечения собственных эмоциональных проблем. Но в больнице она находит способ помочь себе — Ева начинает писать песни.
 
Качество: HDRip
Формат: AVI
Видео кодек: XviD
Аудио кодек: AC3
Видео: MPEG-4 Vizual (XVID), 720x384, Frame rate: 24.000, Bit rate: 1487 Kbps
Аудио: AC-3, Channels: 6 channels 3F2R/LFE, 48.0 KHz, Bit rate: 384 Kbps

Информация о файле

General
    Complete name : God.Help.the.Girl.2014.L1.HDRip.avi
    Format : AVI
    Format/Info : Audio Video Interleave
    File size : 1.47 GiB
    Duration : 1h 51mn
    Overall bit rate : 1 881 Kbps
    Writing application : VirtualDubMod 1.5.10.3 | www.virtualdub-fr.org || (build 2550/release)
    Writing library : VirtualDubMod build 2550/release
  Video #0
    ID : 0
    Format : MPEG-4 Visual
    Format profile : Advanced [email protected]
    Format settings, BVOP : 1
    Format settings, QPel : No
    Format settings, GMC : No warppoints
    Format settings, Matrix : Default (H.263)
    Codec ID : XVID
    Codec ID/Hint : XviD
    Duration : 1h 51mn
    Bit rate : 1 487 Kbps
    Width : 720 pixels
    Height : 384 pixels
    Display aspect ratio : 1.85:1
    Frame rate : 24.000 fps
    Color space : YUV
    Chroma subsampling : 4:2:0
    Bit depth : 8 bits
    Scan type : Progressive
    Compression mode : Lossy
    Bits/(Pixel*Frame) : 0.224
    Stream size : 1.16 GiB (79%)
    Writing library : XviD 1.2.1 (UTC 2008-12-04)
  Audio #1
    ID : 1
    Format : AC-3
    Format/Info : Audio Coding 3
    Mode extension : CM (complete main)
    Format settings, Endianness : Big
    Codec ID : 2000
    Duration : 1h 51mn
    Bit rate mode : Constant
    Bit rate : 384 Kbps
    Channel(s) : 6 channels
    Channel positions : Front: L C R, Side: L R, LFE
    Sampling rate : 48.0 KHz
    Bit depth : 16 bits
    Compression mode : Lossy
    Stream size : 306 MiB (20%)
    Alignment : Split accross interleaves
    Interleave, duration : 42 ms (1.00 video frame)
    Interleave, preload duration : 500 ms

Скриншоты



Последний раз редактировалось: bbk (2015-02-11 20:50), всего редактировалось 1 раз

Создавать темы 11-Фев-2015 08:49

[Профиль]  [ЛС] 

farik9193

Стаж: 5 лет 1 месяц

Сообщений: 501

Симпатии: 47

Очередная Артхаусная какаха . Расходимся .

Создавать темы 11-Фев-2015 10:08

[Профиль]  [ЛС] 

Machine

Стаж: 5 лет 3 месяца

Сообщений: 209

Симпатии: 68

bbk, Уменьшите немного постер, примерно до размеров 400х600 точек..

Создавать темы 11-Фев-2015 12:18

[Профиль]  [ЛС] 

Бахытберген

Стаж: 4 года 7 месяцев

Сообщений: 66

Симпатии: 18

очень хороший фильм, интересует тех кто увлекается музыкой, так как я сам лично очень люблю музыку af. Смотрел с большим удовольствием, получил столько положительных эмоции в течении просмотра фильма, особенно в те минуты когда она пела, рекомендую всем ay. есть но что озвучка одноголосый но всё ж когда смотришь фильм и об этом забудешь, ну вообщем отличный фильм ребят! bf Не пожалеют те которым нравится музыка!

Создавать темы 23-Май-2015 01:11

[Профиль]  [ЛС] 
Показать сообщения:    
Ответить на тему

Текущее время: 11-Дек 07:06

Часовой пояс: UTC + 5



Вы не можете начинать темы
Вы не можете отвечать на сообщения
Вы не можете редактировать свои сообщения
Вы не можете удалять свои сообщения
Вы не можете голосовать в опросах
Вы не можете прикреплять файлы к сообщениям
Вы не можете скачивать файлы