Бродяга Кэнсин: Великий Киотский Пожар / Rurouni Kenshin: Kyoto Inferno / Rurôni Kenshin: Kyôto Taika-hen (Кейдзи Отомо / Keiji Ohtomo) [2014, Япония, боевик, драма, история, HDRip] DVO + DVO + Original Jap + Sub (rus, eng)

Ответить на тему
 

Deadушка ®

Стаж: 6 лет 6 месяцев

Сообщений: 78

Симпатии: 89

Бродяга Кэнсин: Великий Киотский Пожар
Rurouni Kenshin: Kyoto Inferno
Rurôni Kenshin: Kyôto Taika-hen
--- Страна: Япония
Жанр: боевик, драма, история
Год выпуска: 2014
Продолжительность: 02:18:41-Перевод: Любительский (двухголосый закадровый) [DeadSno & den904] - перевод на русский язык [akira9]
Перевод: Любительский (двухголосый закадровый) [Ворон и Трина Дубовицкая] (Anidub)-Cубтитры: русские, английские [отдельно] от [Phoenix Cor]
Оригинальная аудиодорожка: японская-Режиссер: Кейдзи Отомо / Keiji Ohtomo-В ролях: Такеру Сато, Эми Такеи, Тацуя Фудзивара, Ёсукэ Эгути, Юсукэ Исейа, Мунэтака Аоки, Аои Ю, Рюноскэ Камики, Тао Цучия, Мин Танака...-Описание: Продолжение истории о похождениях Кэнсина Химуры, некогда легендарного убийцы, вступившего на путь искупления. На этот раз Кэнсин вступает в противостояние с самим Шишио Макото, злодеем, вознамерившимся свергнуть правительство Мэйдзи и подчинить себе всю Японию. Судьба страны висит на волоске, и скиталец-самурай Химура вновь берет в руки меч, к которому он поклялся никогда не прикасаться снова.
Фильм повествует о наемном убийце, который решил стать на праведный путь и искупить свои грехи, учиненные в прошлом. Он дал себе обещание, что больше никогда не убьет человека, а меч будет применять только в благородных целях — для защиты нуждающихся. Но жизнь складывается таким образом, что Кэнсина Химуру снова должен обнажить свой меч.
В Киото появляется жестокий и расчетливый убийца по имени Шишио Макато, который приехал для того, чтобы свергнуть действующую власть и прибрать ее в свои руки. Никто, кроме нашего героя, не сможет защитить правительство Японии, которое сейчас так сильно нуждается в помощи. Химура — единственный, кто может противостоять Макато. Тем более, что ему всегда готовы помочь верные друзья. Битва между двумя врагами станет решающей, ведь только после нее можно будет понять, кто же настоящая легенда.-Качество видео: HDRip
Формат видео: AVI-Видео: XviD 1744 Кбит/сек; 720 x 304 (2.368) at 23.976 fps
Аудио: AC-3 at 384 Кбит/сек; 6 каналов, 48,0 КГц [DVO]
Аудио: AC-3 at 448 Кбит/сек; 6 каналов, 48,0 КГц [DVO]
Аудио: AC-3 at 448 Кбит/сек; 6 каналов, 48,0 КГц [Jap]

MediaInfo

Общее
Полное имя : D:\Фильмы\Азиатские\Бродяга Кэнсин.Великий киотский пожар\Rurouni Kenshin.Kyoto Inferno.2014.HDRip.XviD.2900MB. rip by [Assassin's Creed]\Rurouni Kenshin.Kyoto Inferno.2014.HDRip.XviD.2900MB. rip by [Assassin's Creed].avi
Формат : AVI
Формат/Информация : Audio Video Interleave
Профиль формата : OpenDML
Размер файла : 2,95 Гбайт
Продолжительность : 2 ч. 18 м.
Общий поток : 3044 Кбит/сек
Программа кодирования : VirtualDubMod 1.5.10.3 | www.virtualdub-fr.org || (build 2550/release)
Библиотека кодирования : VirtualDubMod build 2550/release
Видео
Идентификатор : 0
Формат : MPEG-4 Visual
Профиль формата : Advanced [email protected]
Параметр BVOP формата : 1
Параметр QPel формата : Нет
Параметр GMC формата : Без точки перехода
Параметр матрицы формата : Default (MPEG)
Идентификатор кодека : XVID
Идентификатор кодека/Подсказка : XviD
Продолжительность : 2 ч. 18 м.
Битрейт : 1744 Кбит/сек
Ширина : 720 пикселей
Высота : 304 пикселя
Соотношение сторон : 2,35:1
Частота кадров : 23,976 кадра/сек
Цветовое пространство : YUV
Субдискретизация насыщенности : 4:2:0
Битовая глубина : 8 бит
Тип развёртки : Прогрессивная
Метод сжатия : С потерями
Бит/(Пиксели*Кадры) : 0.332
Размер потока : 1,69 Гбайт (57%)
Библиотека кодирования : XviD 1.2.1 (UTC 2008-12-04)
Аудио #1
Идентификатор : 1
Формат : AC-3
Формат/Информация : Audio Coding 3
Расширение режима : CM (complete main)
Параметр Endianness формата : Big
Идентификатор кодека : 2000
Продолжительность : 2 ч. 18 м.
Вид битрейта : Постоянный
Битрейт : 384 Кбит/сек
Каналы : 6 каналов
Расположение каналов : Front: L C R, Side: L R, LFE
Частота : 48,0 КГц
Битовая глубина : 16 бит
Метод сжатия : С потерями
Размер потока : 381 Мбайт (13%)
Выравнивание : Разделение по промежуткам
Продолжительность промежутка : 42 мс. (1,00 видеокадр)
Время предзагрузки промежутка : 500 мс.
Аудио #2
Идентификатор : 2
Формат : AC-3
Формат/Информация : Audio Coding 3
Расширение режима : CM (complete main)
Параметр Endianness формата : Big
Идентификатор кодека : 2000
Продолжительность : 2 ч. 18 м.
Вид битрейта : Постоянный
Битрейт : 448 Кбит/сек
Каналы : 6 каналов
Расположение каналов : Front: L C R, Side: L R, LFE
Частота : 48,0 КГц
Битовая глубина : 16 бит
Метод сжатия : С потерями
Размер потока : 444 Мбайт (15%)
Выравнивание : Разделение по промежуткам
Продолжительность промежутка : 42 мс. (1,00 видеокадр)
Время предзагрузки промежутка : 500 мс.
Аудио #3
Идентификатор : 3
Формат : AC-3
Формат/Информация : Audio Coding 3
Расширение режима : CM (complete main)
Параметр Endianness формата : Big
Идентификатор кодека : 2000
Продолжительность : 2 ч. 18 м.
Вид битрейта : Постоянный
Битрейт : 448 Кбит/сек
Каналы : 6 каналов
Расположение каналов : Front: L C R, Side: L R, LFE
Частота : 48,0 КГц
Битовая глубина : 16 бит
Метод сжатия : С потерями
Размер потока : 444 Мбайт (15%)
Выравнивание : Разделение по промежуткам
Продолжительность промежутка : 42 мс. (1,00 видеокадр)
Время предзагрузки промежутка : 500 мс.
Текст
Формат : SubRip
Метод сжатия : Без потерь
Текст
Формат : SubRip
Метод сжатия : Без потерь

Скриншоты c названием фильма

Скриншоты

Создавать темы 11-Фев-2015 20:12

[Профиль]  [ЛС] 

SCouT

Стаж: 5 лет 9 месяцев

Сообщений: 12

Продолжение будет))?

Создавать темы 24-Фев-2015 02:55

[Профиль]  [ЛС] 

Deadушка ®

Стаж: 6 лет 6 месяцев

Сообщений: 78

Симпатии: 89

SCouT, Как только, так сразу!

Создавать темы 02-Апр-2015 18:25

[Профиль]  [ЛС] 

macs

Стаж: 6 лет 5 месяцев

Сообщений: 5

Симпатии: 2

POJALUSTA DAYTE SKOROST

Нарушение от Каротажник


6.8. В комментариях запрещается создавать бессмысленные сообщения, не несущие абсолютно никакой полезной информации ( "дайте скорости", "встаньте на раздачу", "раздаю", "газу" и т.п.).

Создавать темы 16-Май-2015 16:52

[Профиль]  [ЛС] 
Показать сообщения:    
Ответить на тему

Текущее время: 19-Окт 15:47

Часовой пояс: UTC + 5



Вы не можете начинать темы
Вы не можете отвечать на сообщения
Вы не можете редактировать свои сообщения
Вы не можете удалять свои сообщения
Вы не можете голосовать в опросах
Вы не можете прикреплять файлы к сообщениям
Вы не можете скачивать файлы