Моя Госпожа / My Mistress (Стивен Лэнс) [2014 г., драма, мелодрама, WEB-DLRip] MVO

Ответить на тему
 

SNation ®

Стаж: 4 года 4 месяца

Сообщений: 81

Симпатии: 70

Моя Госпожа / My Mistress-«Love hurts»- Год выпуска: 2014
Страна: Австралия
Жанр: драма, мелодрама
Продолжительность: 01:40:06
Перевод: Профессиональный (многоголосый)-В ролях: Эммануэль Беар, Харрисон Гилбертсон, Рэйчел Блейк, Сократис Отто, Хью Паркер, Леа Пурселл, Малкольм Кеннард, Робин Мур, Ной Фонтейн, Монетт Ли-Описание: Красивые и невинные отношения, завязавшиеся между романтичным подростком и француженкой, склонной к садомазохизму, вскоре становятся очень опасными…-Рейтинг:
 -Качество: WEB-DLRip
Формат: AVI
Видео: XviD, 1686 kb/s, 720x304
Аудио: AC3, 384 kb/s (6 ch)

MediaInfo

General
Complete name                            : D:\My.Mistress.2014.P.WEB-DLRip.1400MB.avi
Format                                   : AVI
Format/Info                              : Audio Video Interleave
File size                                : 1.45 GiB
Duration                                 : 1h 40mn
Overall bit rate                         : 2 080 Kbps
Writing application                      : VirtualDubMod 1.5.10.2 (build 2540/release)
Writing library                          : VirtualDubMod build 2540/release
Video
ID                                       : 0
Format                                   : MPEG-4 Visual
Format profile                           : Advanced [email protected]
Format settings, BVOP                    : 2
Format settings, QPel                    : No
Format settings, GMC                     : No warppoints
Format settings, Matrix                  : Default (MPEG)
Codec ID                                 : XVID
Codec ID/Hint                            : XviD
Duration                                 : 1h 40mn
Bit rate                                 : 1 686 Kbps
Width                                    : 720 pixels
Height                                   : 304 pixels
Display aspect ratio                     : 2.35:1
Frame rate                               : 25.000 fps
Color space                              : YUV
Chroma subsampling                       : 4:2:0
Bit depth                                : 8 bits
Scan type                                : Progressive
Compression mode                         : Lossy
Bits/(Pixel*Frame)                       : 0.308
Stream size                              : 1.18 GiB (81%)
Writing library                          : XviD 1.2.1 (UTC 2008-12-04)
Audio
ID                                       : 1
Format                                   : AC-3
Format/Info                              : Audio Coding 3
Mode extension                           : CM (complete main)
Format settings, Endianness              : Big
Codec ID                                 : 2000
Duration                                 : 1h 40mn
Bit rate mode                            : Constant
Bit rate                                 : 384 Kbps
Channel(s)                               : 6 channels
Channel positions                        : Front: L C R, Side: L R, LFE
Sampling rate                            : 48.0 KHz
Bit depth                                : 16 bits
Compression mode                         : Lossy
Delay relative to video                  : 5s 512ms
Stream size                              : 275 MiB (18%)
Alignment                                : Split accross interleaves
Interleave, duration                     : 40 ms (1.00 video frame)
Interleave, preload duration             : 500 ms

Скриншоты




Создавать темы 12-Фев-2015 08:44

[Профиль]  [ЛС] 
Показать сообщения:    
Ответить на тему

Текущее время: 22-Авг 18:05

Часовой пояс: UTC + 5



Вы не можете начинать темы
Вы не можете отвечать на сообщения
Вы не можете редактировать свои сообщения
Вы не можете удалять свои сообщения
Вы не можете голосовать в опросах
Вы не можете прикреплять файлы к сообщениям
Вы не можете скачивать файлы