Голоса / The Voices (Маржан Сатрапи) [2014 г., Триллер, Комедия, Криминал, WEB-DLRip] L2

Ответить на тему
 

bbk ®

Стаж: 7 лет 1 месяц

Сообщений: 435

Симпатии: 479

-Голоса / The Voices- Производство: США, Германия, Studio Babelsberg, 1984 Private Defense Contractors
Жанр: Триллер, Комедия, Криминал
Режиссер: Маржан Сатрапи
Продолжительность: 01:43:38
Перевод: Двуголосый закадровый, любительский (RAIM & NASTR)
Субтитры: Отсутствуют-Актеры: Райан Рейнольдс, Джемма Артертон, Анна Кендрик, Джеки Уивер, Ади Шанкар, Рикардия Брамли, Пол Брайтвелл, Аарон Киссиов, Валери Кох, Алесса Кордек-Описание фильма:
Джерри — оптимистичный, приятный парень, но он душевно болен и в последнее время не принимал назначенные ему препараты. В своих галлюцинациях он видит, как его кот предлагает ему стать серийным убийцей, в то время как его пес пытается убедить его, что он хороший человек. Начав вновь принимать препараты, он переживает короткие периоды ясности, в которые понимает, что в его жизни гораздо больше насилия, чем он себе представлял.-Рейтинг:
 
-Рейтинг MPAA: R
Возраст: 18+-Качество видео: WEB-DLRip
Формат: AVI
Видео: XviD, 1647 kb/s, 720x304
Аудио №1: 48 kHz, AC3 Dolby Digital, 2/0 (L,R) ch, ~192 kbps (Русский) / Двуголосый
Аудио №2: 48 kHz, AC3 Dolby Digital, 2/0 (L,R) ch, ~192 kbps (Английский) / Оригинал

MI

Общее
Полное имя : D:\Раздачи\Голоса.2014.WEB-DLRip.NNM-CLUB.avi
Формат : AVI
Формат/Информация : Audio Video Interleave
Размер файла : 1,48 Гбайт
Продолжительность : 1 ч. 43 м.
Общий поток : 2045 Кбит/сек
Программа кодирования : VirtualDubMod 1.5.10.2 (build 2540/release)
Библиотека кодирования : VirtualDubMod build 2540/release
Видео
Идентификатор : 0
Формат : MPEG-4 Visual
Профиль формата : Advanced [email protected]
Параметр BVOP формата : 2
Параметр QPel формата : Нет
Параметр GMC формата : Без точки перехода
Параметр матрицы формата : Default (H.263)
Режим смешивания : Сжатый битовый поток
Идентификатор кодека : XVID
Идентификатор кодека/Подсказка : XviD
Продолжительность : 1 ч. 43 м.
Битрейт : 1647 Кбит/сек
Ширина : 720 пикселей
Высота : 304 пикселя
Соотношение сторон : 2,35:1
Частота кадров : 23,976 кадра/сек
Цветовое пространство : YUV
Субдискретизация насыщенности : 4:2:0
Битовая глубина : 8 бит
Тип развёртки : Прогрессивная
Метод сжатия : С потерями
Бит/(Пиксели*Кадры) : 0.314
Размер потока : 1,19 Гбайт (81%)
Библиотека кодирования : XviD 64
Аудио #1
Идентификатор : 1
Формат : AC-3
Формат/Информация : Audio Coding 3
Расширение режима : CM (complete main)
Параметр Endianness формата : Big
Идентификатор кодека : 2000
Продолжительность : 1 ч. 43 м.
Вид битрейта : Постоянный
Битрейт : 192 Кбит/сек
Каналы : 2 канала
Расположение каналов : Front: L R
Частота : 48,0 КГц
Битовая глубина : 16 бит
Метод сжатия : С потерями
Размер потока : 142 Мбайт (9%)
Выравнивание : Разделение по промежуткам
Продолжительность промежутка : 42 мс. (1,00 видеокадр)
Время предзагрузки промежутка : 500 мс.
Аудио #2
Идентификатор : 2
Формат : AC-3
Формат/Информация : Audio Coding 3
Расширение режима : CM (complete main)
Параметр Endianness формата : Big
Идентификатор кодека : 2000
Продолжительность : 1 ч. 43 м.
Вид битрейта : Постоянный
Битрейт : 192 Кбит/сек
Каналы : 2 канала
Расположение каналов : Front: L R
Частота : 48,0 КГц
Битовая глубина : 16 бит
Метод сжатия : С потерями
Размер потока : 142 Мбайт (9%)
Выравнивание : Разделение по промежуткам
Продолжительность промежутка : 42 мс. (1,00 видеокадр)
Время предзагрузки промежутка : 500 мс.

Скриншоты

Создавать темы 13-Фев-2015 09:02

[Профиль]  [ЛС] 
Показать сообщения:    
Ответить на тему

Текущее время: 18-Дек 12:14

Часовой пояс: UTC + 5



Вы не можете начинать темы
Вы не можете отвечать на сообщения
Вы не можете редактировать свои сообщения
Вы не можете удалять свои сообщения
Вы не можете голосовать в опросах
Вы не можете прикреплять файлы к сообщениям
Вы не можете скачивать файлы