1941 / 1941 (Стивен Спилберг) [1979 г., комедия, военный, BDRip-AVC] [Театральная версия] Dub + Original + Sub (Rus, Eng, Ukr)

Ответить на тему
 

lotto ®

Стаж: 7 лет 7 месяцев

Сообщений: 221

Симпатии: 409

1941
«A Comedy Spectacular!»
-- Год выпуска: 1979
Страна: США
Жанр: комедия, военный
Продолжительность: 01:58:59
Перевод: Профессиональный (полное дублирование)--Режиссер: Стивен Спилберг
В ролях: Дэн Эйкройд, Нед Битти, Джон Белуши, Лоррэйн Гари, Мюррэй Хэмилтон, Кристофер Ли, Тим Мэтисон, Тосиро Мифунэ, Уоррен Оутс, Роберт Стэк--Описание: Комедийный фильм о панике в Лос-Анджелесе после известий о нападении японцев на Перл-Харбор и о приближении японской подводной лодки к берегам Калифорнии с заданием уничтожить Голливуд.-- --Качество: BDRip-AVC
Формат: MKV
Видео кодек: H.264
Аудио кодек: AC3
Видео: 1040 x 442, 2182 kbps, 23.976 fps
Аудио 1 : 48.0 KHz, 6 ch, 384 kbps (русский, дублированный)
Аудио 2 : 48.0 KHz, 6 ch, 384 kbps (английский)
Субтитры: Русские (полные, форсированные), английские SDH, украинские

MediaInfo

General
Unique ID : 236184837038839687333877737599155095397 (0xB1AF8B8588F46E7DBE67F00BAF18C765)
Complete name : /1941 [Dub.Eng].mkv
Format : Matroska
Format version : Version 4 / Version 2
File size : 2.50 GiB
Duration : 1h 58mn
Overall bit rate : 3 010 Kbps
Encoded date : UTC 2014-12-19 10:55:20
Writing application : mkvmerge v6.7.0 ('Back to the Ground') 32bit built on Jan 8 2014 15:03:17
Writing library : libebml v1.3.0 + libmatroska v1.4.1
Video
ID : 1
Format : AVC
Format/Info : Advanced Video Codec
Format profile : [email protected]
Format settings, CABAC : Yes
Format settings, ReFrames : 12 frames
Codec ID : V_MPEG4/ISO/AVC
Duration : 1h 58mn
Bit rate : 2 182 Kbps
Width : 1 040 pixels
Height : 442 pixels
Display aspect ratio : 2.35:1
Frame rate mode : Constant
Frame rate : 23.976 fps
Color space : YUV
Chroma subsampling : 4:2:0
Bit depth : 8 bits
Scan type : Progressive
Bits/(Pixel*Frame) : 0.198
Stream size : 1.81 GiB (72%)
Title : 1941 [rutracker.org]
Writing library : x264 core 142 r2453kMod ea0ca51
Encoding settings : cabac=1 / ref=12 / deblock=1:-2:-1 / analyse=0x3:0x133 / me=umh / subme=11 / psy=1 / fade_compensate=0.00 / psy_rd=1.00:0.05 / mixed_ref=1 / me_range=32 / chroma_me=1 / trellis=2 / 8x8dct=1 / cqm=0 / deadzone=21,11 / fast_pskip=0 / chroma_qp_offset=-3 / threads=12 / lookahead_threads=3 / sliced_threads=0 / nr=0 / decimate=1 / interlaced=0 / bluray_compat=0 / constrained_intra=0 / fgo=0 / bframes=12 / b_pyramid=2 / b_adapt=2 / b_bias=0 / direct=1 / weightb=1 / open_gop=0 / weightp=2 / keyint=250 / keyint_min=23 / scenecut=40 / intra_refresh=0 / rc_lookahead=60 / rc=crf / mbtree=0 / crf=19.3000 / qcomp=0.60 / qpmin=0 / qpmax=69 / qpstep=4 / vbv_maxrate=50000 / vbv_bufsize=62500 / crf_max=0.0 / nal_hrd=none / filler=0 / ip_ratio=1.40 / pb_ratio=1.30 / aq=3:0.90
Language : English
Default : Yes
Forced : No
Audio #1
ID : 2
Format : AC-3
Format/Info : Audio Coding 3
Mode extension : CM (complete main)
Format settings, Endianness : Big
Codec ID : A_AC3
Duration : 1h 58mn
Bit rate mode : Constant
Bit rate : 384 Kbps
Channel(s) : 6 channels
Channel positions : Front: L C R, Side: L R, LFE
Sampling rate : 48.0 KHz
Bit depth : 16 bits
Compression mode : Lossy
Stream size : 327 MiB (13%)
Title : Dub
Language : Russian
Default : Yes
Forced : No
Audio #2
ID : 3
Format : AC-3
Format/Info : Audio Coding 3
Mode extension : CM (complete main)
Format settings, Endianness : Big
Codec ID : A_AC3
Duration : 1h 58mn
Bit rate mode : Constant
Bit rate : 384 Kbps
Channel(s) : 6 channels
Channel positions : Front: L C R, Side: L R, LFE
Sampling rate : 48.0 KHz
Bit depth : 16 bits
Compression mode : Lossy
Stream size : 327 MiB (13%)
Title : Original
Language : English
Default : No
Forced : No
Text #1
ID : 4
Format : UTF-8
Codec ID : S_TEXT/UTF8
Codec ID/Info : UTF-8 Plain Text
Title : Forced
Language : Russian
Default : Yes
Forced : No
Text #2
ID : 5
Format : UTF-8
Codec ID : S_TEXT/UTF8
Codec ID/Info : UTF-8 Plain Text
Title : Full
Language : Russian
Default : No
Forced : No
Text #3
ID : 6
Format : UTF-8
Codec ID : S_TEXT/UTF8
Codec ID/Info : UTF-8 Plain Text
Title : Full
Language : Ukrainian
Default : No
Forced : No
Text #4
ID : 7
Format : UTF-8
Codec ID : S_TEXT/UTF8
Codec ID/Info : UTF-8 Plain Text
Title : SDH
Language : English
Default : No
Forced : No
Menu
00:00:00.000 : en:00:00:00.000
00:07:04.382 : en:00:07:04.382
00:11:28.354 : en:00:11:28.354
00:20:25.307 : en:00:20:25.307
00:27:02.329 : en:00:27:02.329
00:33:43.688 : en:00:33:43.688
00:39:54.851 : en:00:39:54.851
00:46:56.355 : en:00:46:56.355
00:54:11.206 : en:00:54:11.206
01:03:51.036 : en:01:03:51.036
01:10:45.616 : en:01:10:45.616
01:16:11.734 : en:01:16:11.734
01:21:38.852 : en:01:21:38.852
01:30:53.073 : en:01:30:53.073
01:36:52.181 : en:01:36:52.181
01:43:41.132 : en:01:43:41.132
01:49:14.214 : en:01:49:14.214
01:52:45.008 : en:01:52:45.008

Скриншоты





Создавать темы 13-Фев-2015 12:14

[Профиль]  [ЛС] 
Показать сообщения:    
Ответить на тему

Текущее время: 24-Авг 08:09

Часовой пояс: UTC + 5



Вы не можете начинать темы
Вы не можете отвечать на сообщения
Вы не можете редактировать свои сообщения
Вы не можете удалять свои сообщения
Вы не можете голосовать в опросах
Вы не можете прикреплять файлы к сообщениям
Вы не можете скачивать файлы