Риддик / Riddick (Дэвид Туи) [2013 г., фантастика, боевик, триллер, BDRip-AVC] Лицензия | Расширенная версия / Extended Cut | DUB + Original + SUB [Rus+Eng]

Ответить на тему
 

SNation ®

Стаж: 4 года 8 месяцев

Сообщений: 81

Симпатии: 70

Риддик / Riddick--«Лучший способ отомстить - остаться в живых»-- Год выхода: 2013
Жанр: фантастика, боевик, триллер
Страна: США, Великобритания
Студия: One Race Productions, Radar Pictures Inc.
Продолжительность: 02:06:47
Перевод: Профессиональный (полное дублирование)

Режиссер: Дэвид Туи
Сценарий: Дэвид Туи, Джим Уит, Кен Уит
Продюссер: Вин Дизель, Тед Филд, Камилль Браун
Оператор: Дэвид Эггби
Композитор: Грэм Ревелл
Художник: Джозеф С. Немец III, Жан-Андре Каррьере, Роберт Парл
Монтаж: Трэйси Адамс

Бюджет     $38 000 000
Боры в США $42 025 135
Сборы в мире + $56 312 160 = $98 337 295 сборы
Сборы в России $10 246 070
Зрители      5.17 млн, 1.42 млн, 489.8 тыс.
Премьера (мир) 4 сентября 2013, ...
Премьера (РФ) 12 сентября 2013, «Централ Партнершип»
Релиз на DVD 6 февраля 2014, «CP Дистрибуция», ...
Релиз на Blu-Ray 6 февраля 2014, «CP Дистрибуция»,

В ролях:
Вин Дизель, Хорди Молья, Мэттью Нэйбл, Кэти Сакхофф, Дэйв Батиста, Букем Вудбайн, Рауль Трухильо, Конрад Пла, Дэнни Бланко, Карл Урбан, Ноа Дэнби, Нил Напье, Нолан Фанк, Андреас Апергис, Кери Хилсон, Шарли Мари Дюпон, Ян Герсте, Антуанетта Никпрелаж, Александра Соколовская
О фильме:
Преданный своими и брошенный умирать на пустынной планете, Риддик сражается с хищниками за жизнь и становится сильнее и опаснее себя прежнего. Открывшие на него охоту галактические наемники оказываются пешками в грандиозном плане отмщения. С врагами, возникающими на его пути тогда, когда это нужно самому Риддику, он начинает поход во имя мести, чтобы в конечном счете вернуться на родную Фурию и спасти ее от уничтожения.

 

Качество: BDRip-AVC
Формат: MKV
Видео кодек: AVC
Аудио кодек: AС3
Видео: AVC 1 568 Kbps 1032x430 23.976 fps
Аудио: AС3 384 Kbps 6 channels 48.0 KHz Russian | DUB
Аудио: AС3 448 Kbps 6 channels 48.0 KHz English | Original
Субтитры: Russian | English

MediaInfo

General
Unique ID                                : 182836828702006870833794988116235515490 (0x898D17A3296309099499C2C60303F662)
Complete name                            : D:\Риддик.mkv
Format                                   : Matroska
Format version                           : Version 4 / Version 2
File size                                : 2.13 GiB
Duration                                 : 2h 6mn
Overall bit rate                         : 2 402 Kbps
Movie name                               :  rip by kronossss
Encoded date                             : UTC 2014-02-27 08:35:29
Writing application                      : mkvmerge v5.9.0 ('On The Loose') built on Dec 15 2012 16:39:58
Writing library                          : libebml v1.3.0 + libmatroska v1.4.0
Video
ID                                       : 1
Format                                   : AVC
Format/Info                              : Advanced Video Codec
Format profile                           : [email protected]
Format settings, CABAC                   : Yes
Format settings, ReFrames                : 10 frames
Codec ID                                 : V_MPEG4/ISO/AVC
Duration                                 : 2h 6mn
Bit rate                                 : 1 568 Kbps
Width                                    : 1 032 pixels
Height                                   : 430 pixels
Display aspect ratio                     : 2.40:1
Frame rate                               : 23.976 fps
Color space                              : YUV
Chroma subsampling                       : 4:2:0
Bit depth                                : 8 bits
Scan type                                : Progressive
Bits/(Pixel*Frame)                       : 0.147
Stream size                              : 1.35 GiB (63%)
Title                                    : Riddick
Writing library                          : x264 core 130 r2273 b3065e6
Encoding settings                        : cabac=1 / ref=10 / deblock=1:-3:-2 / analyse=0x3:0x133 / me=umh / subme=11 / psy=1 / psy_rd=1.09:0.01 / mixed_ref=1 / me_range=48 / chroma_me=1 / trellis=2 / 8x8dct=1 / cqm=0 / deadzone=21,11 / fast_pskip=0 / chroma_qp_offset=-3 / threads=9 / lookahead_threads=6 / sliced_threads=0 / nr=0 / decimate=0 / interlaced=0 / bluray_compat=0 / constrained_intra=0 / bframes=11 / b_pyramid=2 / b_adapt=2 / b_bias=0 / direct=3 / weightb=1 / open_gop=0 / weightp=2 / keyint=250 / keyint_min=23 / scenecut=40 / intra_refresh=0 / rc_lookahead=60 / rc=2pass / mbtree=0 / bitrate=1568 / ratetol=1.0 / qcomp=0.70 / qpmin=0 / qpmax=69 / qpstep=4 / cplxblur=20.0 / qblur=0.5 / vbv_maxrate=20000 / vbv_bufsize=20000 / nal_hrd=none / ip_ratio=1.35 / pb_ratio=1.25 / aq=1:0.80
Language                                 : English
Default                                  : Yes
Forced                                   : No
Audio #1
ID                                       : 2
Format                                   : AC-3
Format/Info                              : Audio Coding 3
Mode extension                           : CM (complete main)
Format settings, Endianness              : Big
Codec ID                                 : A_AC3
Duration                                 : 2h 6mn
Bit rate mode                            : Constant
Bit rate                                 : 384 Kbps
Channel(s)                               : 6 channels
Channel positions                        : Front: L C R, Side: L R, LFE
Sampling rate                            : 48.0 KHz
Bit depth                                : 16 bits
Compression mode                         : Lossy
Stream size                              : 348 MiB (16%)
Title                                    : Dub | DD 5.1 @ 384 kbps - R5
Language                                 : Russian
Default                                  : Yes
Forced                                   : No
Audio #2
ID                                       : 3
Format                                   : AC-3
Format/Info                              : Audio Coding 3
Mode extension                           : CM (complete main)
Format settings, Endianness              : Big
Codec ID                                 : A_AC3
Duration                                 : 2h 6mn
Bit rate mode                            : Constant
Bit rate                                 : 448 Kbps
Channel(s)                               : 6 channels
Channel positions                        : Front: L C R, Side: L R, LFE
Sampling rate                            : 48.0 KHz
Bit depth                                : 16 bits
Compression mode                         : Lossy
Stream size                              : 406 MiB (19%)
Title                                    : Original | DD 5.1 @ 448 kbps
Language                                 : English
Default                                  : No
Forced                                   : No
Text #1
ID                                       : 4
Format                                   : UTF-8
Codec ID                                 : S_TEXT/UTF8
Codec ID/Info                            : UTF-8 Plain Text
Language                                 : Russian
Default                                  : No
Forced                                   : No
Text #2
ID                                       : 5
Format                                   : UTF-8
Codec ID                                 : S_TEXT/UTF8
Codec ID/Info                            : UTF-8 Plain Text
Title                                    : SDH
Language                                 : English
Default                                  : No
Forced                                   : No
Text #3
ID                                       : 6
Format                                   : UTF-8
Codec ID                                 : S_TEXT/UTF8
Codec ID/Info                            : UTF-8 Plain Text
Title                                    : SDH-Colored
Language                                 : English
Default                                  : No
Forced                                   : No
Menu
00:00:00.000                             : en:(01)00:00:00:000
00:05:35.418                             : en:(02)00:05:35:418
00:12:10.521                             : en:(03)00:12:10:521
00:23:27.364                             : en:(04)00:23:27:364
00:27:56.424                             : en:(05)00:27:56:424
00:32:11.220                             : en:(06)00:32:11:220
00:38:03.698                             : en:(07)00:38:03:698
00:44:20.282                             : en:(08)00:44:20:282
00:48:40.876                             : en:(09)00:48:40:876
00:56:19.667                             : en:(10)00:56:19:667
01:01:16.672                             : en:(11)01:01:16:672
01:07:35.092                             : en:(12)01:07:35:092
01:15:23.435                             : en:(13)01:15:23:435
01:19:58.835                             : en:(14)01:19:58:835
01:26:51.831                             : en:(15)01:26:51:831
01:31:27.106                             : en:(16)01:31:27:106
01:39:32.716                             : en:(17)01:39:32:716
01:45:32.701                             : en:(18)01:45:32:701
01:53:45.652                             : en:(19)01:53:45:652
02:02:56.160                             : en:(20)02:02:56:160
02:06:47.391                             : en:(21)02:06:47:391

Скриншоты




Создавать темы 13-Фев-2015 13:53

[Профиль]  [ЛС] 

wilaem

Стаж: 1 год 9 месяцев

Сообщений: 4

пожалюста дайте плиз скорость

Создавать темы 19-Июл-2016 18:35

[Профиль]  [ЛС] 

wilaem

Стаж: 1 год 9 месяцев

Сообщений: 4

спасибааа ребяттт

Создавать темы 19-Июл-2016 18:35

[Профиль]  [ЛС] 
Показать сообщения:    
Ответить на тему

Текущее время: 12-Дек 00:05

Часовой пояс: UTC + 5



Вы не можете начинать темы
Вы не можете отвечать на сообщения
Вы не можете редактировать свои сообщения
Вы не можете удалять свои сообщения
Вы не можете голосовать в опросах
Вы не можете прикреплять файлы к сообщениям
Вы не можете скачивать файлы