Fender Getting Started Electric Guitar with Keith Wyatt [2007 г., Школа игры на электрогитаре, DVD5]

Ответить на тему
 

Slowwalker ®

Стаж: 4 года 10 месяцев

Сообщений: 165

Симпатии: 68

Fender Getting Started Electric Guitar - лучшие видеокурсы игры на электрогитаре
Год выпуска: 2007
Страна: USA
Жанр: Школа игры на электрогитаре
Продолжительность: более 3-х часов
Язык: Английский
Описание: Лучшая из лучших школа игры на электрогитаре от лучшего в мире производителя электрогитар - фирмы Fender.
Пошаговое построение уроков, трехмерная графика продублирует все занятия (положение пальцев на струнах и т.д.), специальные гитарные караоке-треки для тренировки и лучшего усвоения материала. Уроки по самым популярным стилям игры - рок, блюз, кантри.
DVD состоит из двух главных разделов:
1. Первые шаги: настройка гитары, название струн, основы музыкальной грамоты (ноты, ритм, аккорды), техники извлечения звука.
2. Вторая часть: Техника правой руки, техника левой руки, ритмические части, техника соло-игры, техника игры ритма, рок, блюз и кантри стили, все виды технических особенностей игры данных стилей.
На этом диске что-то новое найдет для себя каждый - и новичок и профессионал.
Качество: DVD5
Формат: DVD Video
Видео кодек: MPEG2
Аудио кодек: AC3
Источник

MI

General
Format : MPEG-PS
File size : 1 024 MiB
Duration : 1mn 34s
Overall bit rate : 91.3 Mbps
Video #224
ID : 224 (0xE0)
Format : MPEG Video
Format version : Version 2
Format profile : [email protected]
Format settings, BVOP : Yes
Format settings, Matrix : Default
Format settings, GOP : M=3, N=13
Duration : 1mn 34s
Bit rate : 88.6 Mbps
Maximum bit rate : 4 000 Kbps
Width : 720 pixels
Height : 480 pixels
Display aspect ratio : 4:3
Frame rate : 29.970 fps
Standard : NTSC
Color space : YUV
Chroma subsampling : 4:2:0
Bit depth : 8 bits
Scan type : Interlaced
Scan order : Top Field First
Compression mode : Lossy
Bits/(Pixel*Frame) : 8.555
Stream size : 994 MiB (97%)
Color primaries : BT.601 NTSC
Transfer characteristics : BT.601
Matrix coefficients : BT.601
Audio #189-128
ID : 189 (0xBD)-128 (0x80)
Format : AC-3
Format/Info : Audio Coding 3
Mode extension : CM (complete main)
Format settings, Endianness : Big
Muxing mode : DVD-Video
Duration : 1mn 34s
Bit rate mode : Constant
Bit rate : 192 Kbps
Channel(s) : 2 channels
Channel positions : Front: L R
Sampling rate : 48.0 KHz
Bit depth : 16 bits
Compression mode : Lossy
Stream size : 2.15 MiB (0%)
Audio #189-129
ID : 189 (0xBD)-129 (0x81)
Format : AC-3
Format/Info : Audio Coding 3
Mode extension : CM (complete main)
Format settings, Endianness : Big
Muxing mode : DVD-Video
Duration : 1mn 34s
Bit rate mode : Constant
Bit rate : 160 Kbps
Channel(s) : 2 channels
Channel positions : Front: L R
Sampling rate : 48.0 KHz
Bit depth : 16 bits
Compression mode : Lossy
Delay relative to video : -4ms
Stream size : 1.79 MiB (0%)
Audio #189-130
ID : 189 (0xBD)-130 (0x82)
Format : AC-3
Format/Info : Audio Coding 3
Mode extension : CM (complete main)
Format settings, Endianness : Big
Muxing mode : DVD-Video
Duration : 1mn 34s
Bit rate mode : Constant
Bit rate : 160 Kbps
Channel(s) : 2 channels
Channel positions : Front: L R
Sampling rate : 48.0 KHz
Bit depth : 16 bits
Compression mode : Lossy
Delay relative to video : -4ms
Stream size : 1.79 MiB (0%)
Audio #189-131
ID : 189 (0xBD)-131 (0x83)
Format : AC-3
Format/Info : Audio Coding 3
Mode extension : CM (complete main)
Format settings, Endianness : Big
Muxing mode : DVD-Video
Duration : 1mn 34s
Bit rate mode : Constant
Bit rate : 160 Kbps
Channel(s) : 2 channels
Channel positions : Front: L R
Sampling rate : 48.0 KHz
Bit depth : 16 bits
Compression mode : Lossy
Delay relative to video : -4ms
Stream size : 1.79 MiB (0%)
Audio #189-132
ID : 189 (0xBD)-132 (0x84)
Format : AC-3
Format/Info : Audio Coding 3
Mode extension : CM (complete main)
Format settings, Endianness : Big
Muxing mode : DVD-Video
Duration : 1mn 34s
Bit rate mode : Constant
Bit rate : 160 Kbps
Channel(s) : 2 channels
Channel positions : Front: L R
Sampling rate : 48.0 KHz
Bit depth : 16 bits
Compression mode : Lossy
Delay relative to video : -4ms
Stream size : 1.79 MiB (0%)

Скриншот



Создавать темы 14-Фев-2015 20:27

[Профиль]  [ЛС] 

rack

Стаж: 4 года

Сообщений: 17

Симпатии: 2

На английском же и как учиться

Создавать темы 14-Фев-2015 21:59

[Профиль]  [ЛС] 

Settrem

Стаж: 3 года 11 месяцев

Сообщений: 30

Симпатии: 2

Интересно ))) Думаю многим будет очень полезно - кто играет на гитаре. Вспомнить навыки, узнать что-то новое )
Спасибо!

Создавать темы 15-Фев-2015 02:25

[Профиль]  [ЛС] 
Показать сообщения:    
Ответить на тему

Текущее время: 25-Ноя 07:04

Часовой пояс: UTC + 5



Вы не можете начинать темы
Вы не можете отвечать на сообщения
Вы не можете редактировать свои сообщения
Вы не можете удалять свои сообщения
Вы не можете голосовать в опросах
Вы не можете прикреплять файлы к сообщениям
Вы не можете скачивать файлы