Дух в стальной плоти: У истоков / Призрак в доспехах / Koukaku Kidoutai Arise: Ghost in the Shell (Кисэ Кадзутика) [OVA+Special] [без хардсаба] [4+5 из 4+5] [JAP+SUB] & [4+0 из 4+5] [RUS(ext)] [2013 г., фантастика, киберпанк, BDRip] [720p]

Ответить на тему
 

Азиз87 ®

Стаж: 4 года 11 месяцев

Сообщений: 752

Симпатии: 143

- Год выпуска: 2013
Страна: Япония
Жанр: фантастика, киберпанк
Продолжительность: ОВА, 4 эп. по 60 мин.
Выпуск: c 22.06.2013 по 06.09.2014-Перевод:
  • русские субтитры от Antravoco (полные/вспомогательные)
    переводчик: Advokat, редакторы: drauglin, pantsurevolution, оформление: Kekcelt
-Режиссёр: Кисэ Кадзутика
Студия: Production I.G-Описание:
Только что отгремела мировая война. Как и в прежних телесериалах, Америка утратила демократию и превратилась в Американскую Империю, Россия и Китай, судя по всему, с треском продули, а Япония ухитрилась не только не остаться радиоактивной дыркой в океане, но и стала сверхдержавой и вернула свои вожделенные острова. Японская утопия, в общем.
А пока что в городе убит офицер, замешанный в контрабанде оружием. Занимающийся расследованием Арамаки, уже лысый, но ещё не седой, собирает свою знаменитую команду (наполовину она уже собрана в виде Бато). Подозрение падает на Мотоко Кусанаги, приписанную к военному 501-ому секретному подразделению. Так же на горизонте замаячил Тогуса, ведущий своё расследование...
В общем, по ходу дела возникают почти все старые и новые герои. Смотрится довольно увлекательно, баланс между разговорами и действием вполне соблюдён. Есть там и интриги, и бои с обязательным буллет-таймом.
© KostasVasilidis, World Art-Информационные ссылки: AniDB || World Art || MAL-Качество: BDRip
Формат видео: MKV [Winter - RG Pantheon]
Видео: x264 (10 bits), 1280х720 (16:9), ~4 200 kbps, 23.976 fps
Аудио JAP: AC-3, 48.0 kHz, 640 Kbps, 5.1ch
Аудио RUS: АС-3, 48.0 kHz, 192 Kbps, 2.0ch - [Azazel & Oni & NesTea] (SHIZA)

Список эпизодов

01. Ghost Pain
02. Ghost Whispers
03. Ghost Tears
04. Ghost Stands Alone
SP 1. Logicoma Beat 1
SP 2. Logicoma Beat 2
SP 3. Logicoma Beat 3
SP 4. Logicoma Beat 4
SP 5. [.jp]

Подробные тех. данные

General
Unique ID                                : 197830246928391775135587129183498323391 (0x94D4B83AC09FD488AC525E3356CAC5BF)
Complete name                            : [Winter] Koukaku Kidoutai Arise - Ghost in the Shell 01 [BDrip 1280x720 x264 AC-3].mkv
Format                                   : Matroska
Format version                           : Version 2
File size                                : 2.04 GiB
Duration                                 : 58mn 22s
Overall bit rate                         : 5 011 Kbps
Encoded date                             : UTC 2013-08-10 07:01:56
Writing application                      : mkvmerge v2.9.8 ('C'est le bon') built on Aug 13 2009 12:49:06
Writing library                          : libebml v0.7.7 + libmatroska v0.8.1
Video
ID                                       : 1
Format                                   : AVC
Format/Info                              : Advanced Video Codec
Format profile                           : High 10@L4.1
Format settings, CABAC                   : Yes
Format settings, ReFrames                : 9 frames
Codec ID                                 : V_MPEG4/ISO/AVC
Duration                                 : 58mn 22s
Bit rate                                 : 4 271 Kbps
Width                                    : 1 280 pixels
Height                                   : 720 pixels
Display aspect ratio                     : 16:9
Frame rate mode                          : Constant
Frame rate                               : 23.976 fps
Color space                              : YUV
Chroma subsampling                       : 4:2:0
Bit depth                                : 10 bits
Scan type                                : Progressive
Bits/(Pixel*Frame)                       : 0.193
Stream size                              : 1.74 GiB (85%)
Writing library                          : x264 core 132 r2309 3b1f1f7
Encoding settings                        : cabac=1 / ref=9 / deblock=1:-2:-2 / analyse=0x3:0x133 / me=umh / subme=9 / psy=1 / psy_rd=0.90:0.00 / mixed_ref=1 / me_range=24 / chroma_me=1 / trellis=2 / 8x8dct=1 / cqm=0 / deadzone=21,11 / fast_pskip=1 / chroma_qp_offset=-2 / threads=6 / lookahead_threads=1 / sliced_threads=0 / nr=0 / decimate=0 / interlaced=0 / bluray_compat=0 / constrained_intra=0 / bframes=8 / b_pyramid=2 / b_adapt=2 / b_bias=0 / direct=1 / weightb=1 / open_gop=0 / weightp=2 / keyint=250 / keyint_min=23 / scenecut=40 / intra_refresh=0 / rc=crf / mbtree=0 / crf=16.0 / qcomp=0.70 / qpmin=9 / qpmax=40 / qpstep=4 / ip_ratio=1.40 / pb_ratio=1.30 / aq=1:0.90
Default                                  : No
Forced                                   : No
Audio
ID                                       : 2
Format                                   : AC-3
Format/Info                              : Audio Coding 3
Mode extension                           : CM (complete main)
Format settings, Endianness              : Big
Codec ID                                 : A_AC3
Duration                                 : 58mn 22s
Bit rate mode                            : Constant
Bit rate                                 : 640 Kbps
Channel count                            : 6 channels
Channel positions                        : Front: L C R, Side: L R, LFE
Sampling rate                            : 48.0 KHz
Bit depth                                : 16 bits
Compression mode                         : Lossy
Stream size                              : 267 MiB (13%)
Language                                 : Japanese
Default                                  : Yes
Forced                                   : No

Скриншоты

- -


Последний раз редактировалось: Азиз87 (2015-02-16 12:04), всего редактировалось 1 раз

Создавать темы 15-Фев-2015 13:20

[Профиль]  [ЛС] 

Топик был перенесен из форума Тестовый форум в форум OVA и дополнения к аниме
Азиз87

Создавать темы 16-Фев-2015 12:04

 

Азиз87 ®

Стаж: 4 года 11 месяцев

Сообщений: 752

Симпатии: 143

Как только починю телефонную линию встану на раздачу. Добавление доп. озвучек от анимедии и т.п. не предвидется еще очень долго, поэтому действующий статус не логичен.-
На весну-лето 2015г. анонсирован выход сериала по данным овам.

Создавать темы 16-Фев-2015 12:05

[Профиль]  [ЛС] 

Азиз87 ®

Стаж: 4 года 11 месяцев

Сообщений: 752

Симпатии: 143

Починил линию. На раздачу как всегда вечером, ночью не раздаю - работает внешка.

Создавать темы 20-Фев-2015 15:31

[Профиль]  [ЛС] 

Азиз87 ®

Стаж: 4 года 11 месяцев

Сообщений: 752

Симпатии: 143

Кто на скачке покажитесь, встаньте на скачку. Решаю сначала раздать этот релиз или из раздела онгоингов.

Создавать темы 08-Май-2015 09:16

[Профиль]  [ЛС] 

sariku

Стаж: 4 года 4 месяца

Сообщений: 10

silver. а ничего нет.

Создавать темы 26-Окт-2016 01:20

[Профиль]  [ЛС] 
Показать сообщения:    
Ответить на тему

Текущее время: 23-Окт 09:29

Часовой пояс: UTC + 5



Вы не можете начинать темы
Вы не можете отвечать на сообщения
Вы не можете редактировать свои сообщения
Вы не можете удалять свои сообщения
Вы не можете голосовать в опросах
Вы не можете прикреплять файлы к сообщениям
Вы не можете скачивать файлы