Добро пожаловать в рай / Vice (Брайан А Миллер) [2015 г., фантастика, боевик, триллер, приключения, HDRip] VO (ИндивИдуалист)

Ответить на тему
 

BBositxon ®

Стаж: 6 лет 9 месяцев

Сообщений: 16

Симпатии: 3

Добро пожаловать в рай / Vice-- Год выпуска: 2015
Страна: США
Жанр: фантастика, боевик, триллер, приключения
Продолжительность: 01:36:21
Перевод: Одноголосый закадровый - ИндивИдуалист--Режиссер: Брайан А Миллер--В ролях: Томас Джейн, Брюс Уиллис, Эмбир Чилдерс, Брайан Гринберг, Джонатон Шек, Шарлотта Кирк, Бретт Гранстафф, Райан О’Нан, Дэвид Гордон, Колин Эглсфилд.--Описание: События фильма разворачиваются в относительно недалёком будущем, когда для богачей создан специальный город-курорт, основные обитатели которого обслуга — роботы. Туристы за соответствующую цену могут осуществить самые безумные свои фантазии, а роботы, пострадавшие от рук людей, направляются на перезагрузку памяти. Но однажды случается сбой, и женщина-робот обретает память о всех кошмарах, которым богатые извращенцы подвергали её и остальных искусственных людей. И она решает отомстить вместе с детективом Тэдэски...--Рейтинг:
 --Доп. информация: Перевод фильма: ИндивИдуалист и Александра Брего;
Адаптированный перевод, озвучивание, обработка звука, сведение, русификация постера, видеорип: ИндивИдуалист;
Переведено и озвучено по версии ИндивИдуалиста!--Качество: HDRip
Формат: AVI
Видео кодек: XviD
Аудио кодек: MP3
Видео: 688x288 (2.40:1), 23,976 fps, XviD build 73 ~951 kbps avg, 0.20 bit/pixel
Аудио: 48 kHz, МР3, 2/0 (L,R) ch, ~128.00 kbps avg----

Скриншоты




MI

General
Format : AVI
Format/Info : Audio Video Interleave
File size : 750 MiB
Duration : 1h 36mn
Overall bit rate : 1 088 Kbps
Writing application : VirtualDubModRus 1.5.10.2 (build 2542/release)
Writing library : VirtualDubMod build 2542/release
Video
ID : 0
Format : MPEG-4 Visual
Format profile : Advanced [email protected]
Format settings, BVOP : Yes
Format settings, QPel : No
Format settings, GMC : No warppoints
Format settings, Matrix : Custom
Codec ID : XVID
Codec ID/Hint : XviD
Duration : 1h 36mn
Bit rate : 951 Kbps
Width : 688 pixels
Height : 288 pixels
Display aspect ratio : 2.40:1
Frame rate : 23.976 fps
Color space : YUV
Chroma subsampling : 4:2:0
Bit depth : 8 bits
Scan type : Progressive
Compression mode : Lossy
Bits/(Pixel*Frame) : 0.200
Stream size : 655 MiB (87%)
Writing library : XviD 73
Audio
ID : 1
Format : MPEG Audio
Format version : Version 1
Format profile : Layer 3
Mode : Joint stereo
Codec ID : 55
Codec ID/Hint : MP3
Duration : 1h 36mn
Bit rate mode : Constant
Bit rate : 128 Kbps
Channel(s) : 2 channels
Sampling rate : 48.0 KHz
Compression mode : Lossy
Stream size : 88.2 MiB (12%)
Alignment : Aligned on interleaves
Interleave, duration : 42 ms (1.00 video frame)
Interleave, preload duration : 504 ms

Создавать темы 16-Фев-2015 09:31

[Профиль]  [ЛС] 

Grock

Стаж: 6 лет 7 месяцев

Сообщений: 637

Симпатии: 113

Присоединяюсь к раздаче zd

Создавать темы 16-Фев-2015 09:58

[Профиль]  [ЛС] 

BBositxon ®

Стаж: 6 лет 9 месяцев

Сообщений: 16

Симпатии: 3

920279Присоединяюсь к раздаче zd
спасибо tf

Создавать темы 16-Фев-2015 10:06

[Профиль]  [ЛС] 

100stiks

Стаж: 4 года 7 месяцев

Сообщений: 35

Симпатии: 3

))) Брюс туда же ....за бандерасом.... страховщик (ремейк 2015) как фильм ребята ????

Создавать темы 16-Фев-2015 11:05

[Профиль]  [ЛС] 

Romanzver

Стаж: 6 лет 5 месяцев

Сообщений: 12

Не стоит тратить времени, жуткий трешак. ТВ3 - отдыхает.

Создавать темы 17-Фев-2015 18:45

[Профиль]  [ЛС] 

Salimbek_09

Стаж: 5 лет 5 месяцев

Сообщений: 29

Круто ништяк ++++++

Создавать темы 03-Мар-2015 20:26

[Профиль]  [ЛС] 
Показать сообщения:    
Ответить на тему

Текущее время: 26-Сен 07:09

Часовой пояс: UTC + 5



Вы не можете начинать темы
Вы не можете отвечать на сообщения
Вы не можете редактировать свои сообщения
Вы не можете удалять свои сообщения
Вы не можете голосовать в опросах
Вы не можете прикреплять файлы к сообщениям
Вы не можете скачивать файлы