[#16]Властелин колец: Две крепости / The Lord of the Rings: The Two Towers (Питер Джексон) [2002 г., Фэнтези, Боевик, Приключения, BDRip 720p] Расширенное Издание / Extended Edition

Ответить на тему
 

SNation ®

Стаж: 4 года 4 месяца

Сообщений: 81

Симпатии: 70

--«Приключение продолжается»-- Год выпуска: 2002
Страна: США, Новая Зеландия
Жанр: Фэнтези, Боевик, Приключения
Продолжительность: 03.55.30
Перевод: Дубляж (со вставками DUB "Позитив-мультимедиа")--Режиссер: Питер Джексон
Сценарий Фрэнсис Уолш, Филиппа Бойенс, Стивен Синклер, ...
Продюсер Питер Джексон, Барри М. Осборн, Фрэнсис Уолш, ...
Оператор Эндрю Лесни
Композитор Говард Шор
Художник Грант Мейджор, Джо Бликли, Дэн Хенна, ...
Монтаж Майкл Хортон--Бюджет:$94 000 000
Маркетинг $45 000 000
Сборы в США $341 786 758
Сборы в мире + $583 495 746 = $925 282 509
Сборы в России $9 400 000
Зрители 57.6 млн, 12.3 млн, 11.2 млн, ...
Премьера (мир) 5 декабря 2002, ...
Премьера (РФ) 22 января 2003, «Каро-Премьер»
Релиз на DVD 28 августа 2003, «Premier Digital», ...
Релиз на Blu-Ray 6 апреля 2010, «Юниверсал Пикчерс Рус», ...-В ролях:
Элайджа Вуд, Шон Эстин, Орландо Блум, Вигго Мортенсен, Иэн МакКеллен, Доминик Монахэн, Миранда Отто, Джон Рис-Дэвис, Энди Серкис, Билли Бойд
Описание:
Братство распалось, но Кольцо Всевластья должно быть уничтожено. Фродо и Сэм вынуждены доверить свои жизни Голлуму, который взялся провести их к вратам Мордора. Громадная Армия Сарумана приближается: члены братства и их союзники готовы принять бой. Битва за Средиземье продолжается.- - Качество: BDRip 720p
Формат: MKV
Видео кодек: H.264
Аудио кодек: AC3
Видео: H264 2269 Kbps 1280x528 23.976 fps
Аудио: AС3 384 Kbps 6 channels 48.0 KHz Russian | DUB
Субтитры: Russian (На эльфийскую речь)

Награды

    Оскар, 2003 год
    Победитель (2):
    Лучший монтаж звука
    Лучшие визуальные эффекты
    Сатурн, 2004 год
    Победитель (1):
    Лучшее специальное DVD-издание
    Премия канала «MTV», 2003 год
    Победитель (4):
    Лучший фильм
    Лучшая экшн-сцена
    Лучший виртуальный персонаж — «Голлум»
    Лучшая экранная команда (Шон Эстин, Элайджа Вуд)
    Британская академия, 2003 год
    Победитель (3):
    Лучшие костюмы
    Лучшие визуальные эффекты
    Приз зрительских симпатий
    Сатурн, 2003 год
    Победитель (4):
    Лучший фэнтези-фильм
    Лучший актер второго плана (Энди Серкис)
    Лучшие костюмы
    Лучший грим

MediaInfo

General
Unique ID                                : 239403631941439882348298990567642018410 (0xB41B765CE783D2EFB9B252B87DAEB26A)
Complete name                            : D:\Trilogy\Две крепости.mkv
Format                                   : Matroska
Format version                           : Version 2
File size                                : 4.37 GiB
Duration                                 : 3h 55mn
Overall bit rate mode                    : Variable
Overall bit rate                         : 2 655 Kbps
Movie name                               : Rip by constman [ELEMENT-TEAM.ORG]
Encoded date                             : UTC 2011-08-24 13:27:54
Writing application                      : mkvmerge v4.0.0 ('The Stars were mine') сборка от Jun  6 2010 16:18:42
Writing library                          : libebml v1.0.0 + libmatroska v1.0.0
Video
ID                                       : 1
Format                                   : AVC
Format/Info                              : Advanced Video Codec
Format profile                           : [email protected]
Format settings, CABAC                   : Yes
Format settings, ReFrames                : 3 frames
Codec ID                                 : V_MPEG4/ISO/AVC
Duration                                 : 3h 55mn
Bit rate mode                            : Variable
Bit rate                                 : 2 269 Kbps
Maximum bit rate                         : 14.0 Mbps
Width                                    : 1 280 pixels
Height                                   : 528 pixels
Display aspect ratio                     : 2.40:1
Frame rate                               : 23.976 fps
Color space                              : YUV
Chroma subsampling                       : 4:2:0
Bit depth                                : 8 bits
Scan type                                : Progressive
Bits/(Pixel*Frame)                       : 0.140
Stream size                              : 3.65 GiB (84%)
Title                                    : h264
Writing library                          : x264 core 115 r1995 c1e60b9
Encoding settings                        : cabac=1 / ref=2 / deblock=1:-1:-1 / analyse=0x3:0x113 / me=hex / subme=6 / psy=1 / psy_rd=1.00:0.15 / mixed_ref=1 / me_range=16 / chroma_me=1 / trellis=1 / 8x8dct=1 / cqm=0 / deadzone=21,11 / fast_pskip=1 / chroma_qp_offset=-3 / threads=3 / sliced_threads=0 / slices=4 / nr=0 / decimate=1 / interlaced=0 / bluray_compat=1 / constrained_intra=0 / bframes=3 / b_pyramid=1 / b_adapt=1 / b_bias=0 / direct=1 / weightb=1 / open_gop=1 / weightp=1 / keyint=24 / keyint_min=2 / scenecut=40 / intra_refresh=0 / rc_lookahead=24 / rc=2pass / mbtree=1 / bitrate=2269 / ratetol=1.0 / qcomp=0.60 / qpmin=0 / qpmax=51 / qpstep=4 / cplxblur=20.0 / qblur=0.5 / vbv_maxrate=14000 / vbv_bufsize=14000 / nal_hrd=vbr / ip_ratio=1.40 / aq=1:1.00
Language                                 : English
Default                                  : No
Forced                                   : No
Audio
ID                                       : 2
Format                                   : AC-3
Format/Info                              : Audio Coding 3
Mode extension                           : CM (complete main)
Format settings, Endianness              : Big
Codec ID                                 : A_AC3
Duration                                 : 3h 55mn
Bit rate mode                            : Constant
Bit rate                                 : 384 Kbps
Channel(s)                               : 6 channels
Channel positions                        : Front: L C R, Side: L R, LFE
Sampling rate                            : 48.0 KHz
Bit depth                                : 16 bits
Compression mode                         : Lossy
Stream size                              : 647 MiB (14%)
Title                                    : RUS Dubbing (Pozitive Inserts) AC-3, 384 Kbps, 6 ch, 48.0 KHz, 16 bits
Default                                  : No
Forced                                   : No

Скриншоты

Создавать темы 16-Фев-2015 15:57

[Профиль]  [ЛС] 

UmidjonZar

Стаж: 1 год 10 месяцев

Сообщений: 14

Симпатии: 9

почему не удается подключится к пирам

Создавать темы 03-Май-2016 22:29

[Профиль]  [ЛС] 

Лочинбек

Стаж: 11 месяцев 23 дня

Сообщений: 10

встаньте на раздачу

Создавать темы 05-Дек-2016 17:58

[Профиль]  [ЛС] 
Показать сообщения:    
Ответить на тему

Текущее время: 21-Авг 22:58

Часовой пояс: UTC + 5



Вы не можете начинать темы
Вы не можете отвечать на сообщения
Вы не можете редактировать свои сообщения
Вы не можете удалять свои сообщения
Вы не можете голосовать в опросах
Вы не можете прикреплять файлы к сообщениям
Вы не можете скачивать файлы