[#9]Властелин колец: Возвращение Короля / The Lord of the Rings: The Return of the King (Питер Джексон) [2003 г., Фэнтези, боевик, приключения, BDRip 720p] Расширенное Издание / Extended Editio

Ответить на тему
 

SNation ®

Стаж: 4 года 5 месяцев

Сообщений: 81

Симпатии: 70

--«There can be no triumph without loss. No victory without suffering. No freedom without sacrifice»-- Год выпуска: 2003
Страна: США, Новая Зеландия
Жанр: Фэнтези, Боевик, Приключения
Продолжительность: 04:23:30
Перевод: Дубляж--Режиссер: Питер Джексон
Сценарий Фрэнсис Уолш, Филиппа Бойенс, Питер Джексон, ...
Продюсер Питер Джексон, Барри М. Осборн, Фрэнсис Уолш, ...
Оператор Эндрю Лесни
Композитор Говард Шор
Художник Грант Мейджор, Джо Бликли, Саймон Брайт, ...
Монтаж Джэми Селкирк--Бюджет: $94 000 000
Маркетинг $50 000 000
Сборы в США $377 027 325
Сборы в мире + $742 083 616 = $1 119 110 941
Сборы в России $14 085 000
Зрители 61.9 млн, 11.6 млн, 10.4 млн, ...
Премьера (мир) 1 декабря 2003, ...
Премьера (РФ) 22 января 2004, «Каро-Премьер»
Релиз на DVD 25 мая 2004, «Premier Digital», ...
Релиз на Blu-Ray 6 апреля 2010, «Юниверсал Пикчерс Рус», ...-В ролях:
Элайджа Вуд, Шон Эстин, Билли Бойд, Доминик Монахэн, Орландо Блум, Вигго Мортенсен, Энди Серки, Иэн МакКеллен, Миранда Отто, Лив Тайлер
Описание:
Последняя часть трилогии о Кольце Всевластия и о героях, взявших на себя бремя спасения Средиземья. Повелитель сил Тьмы Саурон направляет свои бесчисленные рати под стены Минас-Тирита, крепости Последней Надежды. Он предвкушает близкую победу, но именно это и мешает ему заметить две крохотные фигурки — хоббитов, приближающихся к Роковой Горе, где им предстоит уничтожить Кольцо Всевластия. Улыбнется ли им счастье?- - Качество: BDRip 720p
Формат: MKV
Видео кодек: H.264
Аудио кодек: AC3
Видео: H264 1989 Kbps 1280x528 23.976 fps
Аудио: AС3 384 Kbps 6 channels 48.0 KHz Russian | DUB
Субтитры: Russian (На эльфийскую речь)

Награды

    Оскар, 2004 год
    Победитель (11):
    Лучший фильм
    Лучший режиссер (Питер Джексон)
    Лучший адаптированный сценарий
    Лучшие декорации
    Лучшие костюмы
    Лучший звук
    Лучший монтаж
    Лучшие визуальные эффекты
    Лучший грим
    Лучшая песня — «Into the West»
    Лучший оригинальный саундтрек
    Золотой глобус, 2004 год
    Победитель (4):
    Лучший фильм (драма)
    Лучший режиссер (Питер Джексон)
    Лучшая песня — «Into the West»
    Лучший саундтрек
    Премия канала «MTV», 2004 год
    Победитель (2):
    Лучший фильм
    Лучшая экшн-сцена
    Британская академия, 2004 год
    Победитель (5):
    Лучший фильм
    Лучший адаптированный сценарий
    Лучшая работа оператора
    Лучшие визуальные эффекты
    Приз зрительских симпатий
    Сатурн, 2004 год
    Победитель (8):
    Лучший фэнтези-фильм
    Лучший режиссер (Питер Джексон)
    Лучший актер (Элайджа Вуд)
    Лучший актер второго плана (Шон Эстин)
    Лучший сценарий
    Лучшие спецэффекты
    Лучшая музыка
    Лучший грим
    Премия Гильдии актеров, 2004 год
    Победитель (1):
    Лучший актерский состав
    Сатурн, 2005 год
    Победитель (1):
    Лучшее специальное DVD-издание

MediaInfo

General
Unique ID                                : 246644293767571445488597232042111037233 (0xB98DF68D95D8A78289149AF04C426F31)
Complete name                            : D:\Trilogy\Возвращение Короля.mkv
Format                                   : Matroska
Format version                           : Version 2
File size                                : 4.37 GiB
Duration                                 : 4h 23mn
Overall bit rate mode                    : Variable
Overall bit rate                         : 2 375 Kbps
Movie name                               : Rip by constman [ELEMENT-TEAM]
Encoded date                             : UTC 2011-09-10 12:28:53
Writing application                      : mkvmerge v4.0.0 ('The Stars were mine') сборка от Jun  6 2010 16:18:42
Writing library                          : libebml v1.0.0 + libmatroska v1.0.0
Video
ID                                       : 1
Format                                   : AVC
Format/Info                              : Advanced Video Codec
Format profile                           : [email protected]
Format settings, CABAC                   : Yes
Format settings, ReFrames                : 3 frames
Codec ID                                 : V_MPEG4/ISO/AVC
Duration                                 : 4h 23mn
Bit rate mode                            : Variable
Bit rate                                 : 1 989 Kbps
Maximum bit rate                         : 14.0 Mbps
Width                                    : 1 280 pixels
Height                                   : 528 pixels
Display aspect ratio                     : 2.40:1
Frame rate                               : 23.976 fps
Color space                              : YUV
Chroma subsampling                       : 4:2:0
Bit depth                                : 8 bits
Scan type                                : Progressive
Bits/(Pixel*Frame)                       : 0.123
Stream size                              : 3.57 GiB (82%)
Writing library                          : x264 core 116 r2074 2641b9e
Encoding settings                        : cabac=1 / ref=2 / deblock=1:-1:-1 / analyse=0x3:0x113 / me=hex / subme=6 / psy=1 / psy_rd=1.00:0.15 / mixed_ref=1 / me_range=16 / chroma_me=1 / trellis=1 / 8x8dct=1 / cqm=0 / deadzone=21,11 / fast_pskip=1 / chroma_qp_offset=-3 / threads=3 / sliced_threads=0 / slices=4 / nr=0 / decimate=1 / interlaced=0 / bluray_compat=1 / constrained_intra=0 / bframes=3 / b_pyramid=1 / b_adapt=1 / b_bias=0 / direct=1 / weightb=1 / open_gop=1 / weightp=1 / keyint=24 / keyint_min=2 / scenecut=40 / intra_refresh=0 / rc_lookahead=24 / rc=2pass / mbtree=1 / bitrate=1989 / ratetol=1.0 / qcomp=0.60 / qpmin=0 / qpmax=51 / qpstep=4 / cplxblur=20.0 / qblur=0.5 / vbv_maxrate=14000 / vbv_bufsize=14000 / nal_hrd=vbr / ip_ratio=1.40 / aq=1:1.00
Language                                 : English
Default                                  : No
Forced                                   : No
Audio
ID                                       : 2
Format                                   : AC-3
Format/Info                              : Audio Coding 3
Mode extension                           : CM (complete main)
Format settings, Endianness              : Big
Codec ID                                 : A_AC3
Duration                                 : 4h 23mn
Bit rate mode                            : Constant
Bit rate                                 : 384 Kbps
Channel(s)                               : 6 channels
Channel positions                        : Front: L C R, Side: L R, LFE
Sampling rate                            : 48.0 KHz
Bit depth                                : 16 bits
Compression mode                         : Lossy
Stream size                              : 723 MiB (16%)
Default                                  : No
Forced                                   : No

Скриншоты

Создавать темы 16-Фев-2015 16:50

[Профиль]  [ЛС] 

fdjon

Стаж: 2 года 6 месяцев

Сообщений: 25

Симпатии: 3

Фильм проста легенда !!!! спасибо за фильм!!

Создавать темы 11-Мар-2015 18:07

[Профиль]  [ЛС] 

king05

Стаж: 3 года 9 месяцев

Сообщений: 9

скорасть будит для кача хочу смотрет филм

Создавать темы 14-Фев-2016 13:01

[Профиль]  [ЛС] 

king05

Стаж: 3 года 9 месяцев

Сообщений: 9

дайте скорасть плз

Создавать темы 14-Фев-2016 18:28

[Профиль]  [ЛС] 

king05

Стаж: 3 года 9 месяцев

Сообщений: 9

55 % качнул ешо чуток дайте плз кач

Создавать темы 17-Фев-2016 10:41

[Профиль]  [ЛС] 

king05

Стаж: 3 года 9 месяцев

Сообщений: 9

cиды куда ушли ппц 21 % осталос ((

Создавать темы 17-Фев-2016 12:30

[Профиль]  [ЛС] 

king05

Стаж: 3 года 9 месяцев

Сообщений: 9

ну народ скорасть упал чуток увиличте скорасть плз бистра качну

Создавать темы 17-Фев-2016 12:59

[Профиль]  [ЛС] 

xamdullayev

Стаж: 3 года 11 месяцев

Сообщений: 20

Симпатии: 1

дайте скорости плииз

Создавать темы 07-Апр-2017 18:36

[Профиль]  [ЛС] 
Показать сообщения:    
Ответить на тему

Текущее время: 19-Сен 22:11

Часовой пояс: UTC + 5



Вы не можете начинать темы
Вы не можете отвечать на сообщения
Вы не можете редактировать свои сообщения
Вы не можете удалять свои сообщения
Вы не можете голосовать в опросах
Вы не можете прикреплять файлы к сообщениям
Вы не можете скачивать файлы