Изгнанные из Рая / Rakuen Tsuihou: Expelled from Paradise [Movie] [Без хардсаба] [RUS(int)] [2014 г., приключения, BDRip] [720p]

Ответить на тему
 

Deadушка ®

Стаж: 6 лет 7 месяцев

Сообщений: 78

Симпатии: 89

--- Страна: Япония
Год выпуска: 2014 г.
Жанр: приключения
Тип: Movie
Продолжительность: 105 мин.-Студия:
Режиссер: Мидзусима Сэйдзи-Описание: Далекое будущее. Человечество, пережившее «наночуму», в большинстве своём, отринув свои бренные тела, переселилось в виртуальный мир под названием «Дива». На первый взгляд может показаться, что человечество наконец обрело настоящий рай. Но на поверку выходит всё не так радужно. Объём памяти Дивы, который делится на всех живущих в ней, ограничен. Всех паразитов общества и нарушителей спокойствия сажают в архив, виртуальную тюрьму, а их память освобождают. Потому все жители только и занимаются тем, что стараются доказать свою полезность всеми возможными способами. Ведь, чем больше ты полезен для общества, тем больше памяти тебе выделяют и тем бо́льшую свободу ты обретаешь. И вот одна из таких «работяг», Анжела Бальзак из Службы Безопасности, получает своё очередное задание — выследить в реальном мире некого Первопроходца, хакера, который уже множество раз подвергал Диву взлому. А в качестве поддержки Анжела получает меху последней модели и Зарика Кадживару, напарника-проводника из числа людей, оставшихся жить в реальном мире.-Перевод: Cylowatt, Infernat, Nikrofill [Anibread]
Озвучивание: двухголосое (муж./жен.) [Dark_Demon & Miori]
Тайминг: Nagisa Kaworu & Dark_Demon
Звук: Dark_Demon & Miori
Обложка: Miori
Релиз от: -Качество: BDRip [Cactus_Team]
Тип релиза: Без хардсаба
Формат видео: MP4
Совместимость с бытовыми плеерами: Нет
Видео: x264 (8 bit), 1280x720, 2 935 Kbps, 23.976 fps
Аудио: [int] AAC, 192 kbps, 48 kHz, 2 ch

Подробные тех. данные

General
Complete name : D:\CactusTeam\Rakuen Tsuihou Expelled from Paradise\[Cactus_Team] Rakuen Tsuihou Expelled from Paradise (BD 1280x720 x264 AAC)_[Dark_Demon & Miori].mp4
Format : MPEG-4
Format profile : Base Media
Codec ID : isom
File size : 2.26 GiB
Duration : 1h 43mn
Overall bit rate mode : Variable
Overall bit rate : 3 128 Kbps
Encoded date : UTC 2015-01-01 17:40:21
Tagged date : UTC 2015-01-01 17:40:21
Writing application : Yamb 2.1.0.0 [http://yamb.unite-video.com]
Video
ID : 1
Format : AVC
Format/Info : Advanced Video Codec
Format profile : [email protected]
Format settings, CABAC : Yes
Format settings, ReFrames : 2 frames
Codec ID : avc1
Codec ID/Info : Advanced Video Coding
Duration : 1h 43mn
Bit rate : 2 935 Kbps
Maximum bit rate : 36.4 Mbps
Width : 1 280 pixels
Height : 720 pixels
Display aspect ratio : 16:9
Frame rate mode : Constant
Frame rate : 23.976 fps
Color space : YUV
Chroma subsampling : 4:2:0
Bit depth : 8 bits
Scan type : Progressive
Bits/(Pixel*Frame) : 0.133
Stream size : 2.12 GiB (94%)
Writing library : x264 core 129
Encoding settings : cabac=1 / ref=2 / deblock=1:0:0 / analyse=0x3:0x113 / me=hex / subme=6 / psy=1 / psy_rd=1.00:0.00 / mixed_ref=1 / me_range=16 / chroma_me=1 / trellis=0 / 8x8dct=1 / cqm=0 / deadzone=21,11 / fast_pskip=1 / chroma_qp_offset=-2 / threads=4 / lookahead_threads=1 / sliced_threads=0 / nr=0 / decimate=1 / interlaced=0 / bluray_compat=0 / constrained_intra=0 / bframes=0 / weightp=2 / keyint=250 / keyint_min=25 / scenecut=40 / intra_refresh=0 / rc_lookahead=40 / rc=2pass / mbtree=1 / bitrate=2935 / ratetol=1.0 / qcomp=0.60 / qpmin=10 / qpmax=51 / qpstep=4 / cplxblur=20.0 / qblur=0.5 / ip_ratio=1.41 / aq=1:1.00
Encoded date : UTC 2014-12-11 12:04:22
Tagged date : UTC 2015-01-01 17:45:03
Audio
ID : 2
Format : AAC
Format/Info : Advanced Audio Codec
Format profile : LC
Codec ID : 40
Duration : 1h 43mn
Bit rate mode : Variable
Bit rate : 192 Kbps
Maximum bit rate : 196 Kbps
Channel(s) : 2 channels
Channel positions : Front: L R
Sampling rate : 48.0 KHz
Compression mode : Lossy
Stream size : 142 MiB (6%)
Language : English
Encoded date : UTC 2015-01-01 17:44:25
Tagged date : UTC 2015-01-01 17:45:03

Отличия

Наличие озвучки Изгнанные из Рая

Скриншоты

Создавать темы 18-Фев-2015 21:10

[Профиль]  [ЛС] 
Показать сообщения:    
Ответить на тему

Текущее время: 15-Дек 09:44

Часовой пояс: UTC + 5



Вы не можете начинать темы
Вы не можете отвечать на сообщения
Вы не можете редактировать свои сообщения
Вы не можете удалять свои сообщения
Вы не можете голосовать в опросах
Вы не можете прикреплять файлы к сообщениям
Вы не можете скачивать файлы