Чужая (Антон Борматов) [2010 г., драма, криминал, DVDRip-AVC]

Ответить на тему
 

kat222000 ®

Стаж: 6 лет 8 месяцев

Сообщений: 608

Симпатии: 1055

Чужая- -Год выпуска: 2010
Страна: Россия
Жанр: драма, криминал
Продолжительность: 01:44:10-Режиссер: Антон Борматов-Продюсер: Константин Эрнст, Игорь Толстунов, Дмитрий Корж-В ролях: Наталья Романычева, Кирилл Полухин, Евгений Ткачук, Анатолий Отраднов, Александр Голубков, Евгений Мундум, Олег Байкулов, Александр Корчагин, Дмитрий Ратомский, Сергей Сипливый-Описание: 1990-е. Бандитский Киев. Бригада из четырех бойцов получает задание доставить из Праги девушку по кличке «Чужая». Она — родная сестра арестованного Бабая, чьи показания могут навредить важным людям.- -Возраст: зрителям, достигшим 16 лет-Рейтинг MPAA: лицам до 17 лет обязательно присутствие взрослого-Качество: DVDRip-AVC
Формат: MKVВидео кодек: AVCАудио кодек: AC3
Видео: AVC, 1024x552, 25fps, 2 030 Kbps
Аудио: Dolby AC3, 48000Hz, 6ch, 384kbps
-

Рейтинг R - Детям до 17 лет обязательно присутствие родителей:

Рейтинг R получают фильмы, в содержании которых обязательно содержится материал, предназначенный только для взрослой аудитории. Родителям рекомендуется хорошо подумать, прежде чем посмотреть такой фильм вместе со своими детьми.
Фильм, получивший рейтинг R, скорее всего содержит сексуальные сцены, эпизоды с употреблением наркотиков, нецензурную брань, фрагменты с насилием и т.д.
-

MediaInfo

General
Unique ID : 249609334597735529048172305679134040914 (0xBBC9025A473484C79F559BEE5FF12352)
Format : Matroska
Format version : Version 2
File size : 1.79 GiB
Duration : 1h 44mn
Overall bit rate : 2 463 Kbps
Encoded date : UTC 2010-07-25 09:57:53
Writing application : mkvmerge v4.0.0 ('The Stars were mine') сборка от Jun 6 2010 16:18:42
Writing library : libebml v1.0.0 + libmatroska v1.0.0
Video
ID : 1
Format : AVC
Format/Info : Advanced Video Codec
Format profile : [email protected]
Format settings, CABAC : Yes
Format settings, ReFrames : 16 frames
Codec ID : V_MPEG4/ISO/AVC
Duration : 1h 44mn
Bit rate : 2 030 Kbps
Width : 1024 pixels
Height : 552 pixels
Display aspect ratio : 1.85:1
Frame rate mode : Constant
Frame rate : 25.000 fps
Color space : YUV
Chroma subsampling : 4:2:0
Bit depth : 8 bits
Scan type : Progressive
Bits/(Pixel*Frame) : 0.204
Stream size : 1.48 GiB (82%)
Title : Чужая /Rip by aLEXX/
Writing library : x264 core 98 r1649 c54c47d
Encoding settings : cabac=1 / ref=16 / deblock=1:-3:-3 / analyse=0x3:0x133 / me=esa / subme=9 / psy=1 / psy_rd=1.00:0.20 / mixed_ref=1 / me_range=24 / chroma_me=1 / trellis=2 / 8x8dct=1 / cqm=0 / deadzone=21,11 / fast_pskip=1 / chroma_qp_offset=-3 / threads=2 / sliced_threads=0 / nr=0 / decimate=1 / interlaced=0 / constrained_intra=0 / bframes=10 / b_pyramid=2 / b_adapt=2 / b_bias=0 / direct=1 / weightb=1 / weightp=2 / keyint=250 / keyint_min=25 / scenecut=40 / intra_refresh=0 / rc_lookahead=50 / rc=crf / mbtree=1 / crf=18.5 / qcomp=0.60 / qpmin=10 / qpmax=51 / qpstep=4 / ip_ratio=1.40 / aq=1:1.00 / zones=150732,156250,q=40
Default : Yes
Forced : No
Audio
ID : 2
Format : AC-3
Format/Info : Audio Coding 3
Mode extension : CM (complete main)
Format settings, Endianness : Big
Codec ID : A_AC3
Duration : 1h 44mn
Bit rate mode : Constant
Bit rate : 384 Kbps
Channel(s) : 6 channels
Channel positions : Front: L C R, Side: L R, LFE
Sampling rate : 48.0 KHz
Bit depth : 16 bits
Compression mode : Lossy
Stream size : 286 MiB (16%)
Language : Russian
Default : Yes
Forced : No
-

Скриншоты




- - - -

Создавать темы 18-Фев-2015 22:54

[Профиль]  [ЛС] 

opium-gangster

Стаж: 4 года 8 месяцев

Сообщений: 78

Симпатии: 8

Спасибо kat222000,

Создавать темы 18-Фев-2015 23:33

[Профиль]  [ЛС] 

XziD

Стаж: 4 года 1 месяц

Сообщений: 13

Симпатии: 2

Спасибо, а где раздача?

Создавать темы 19-Фев-2015 00:59

[Профиль]  [ЛС] 
Показать сообщения:    
Ответить на тему

Текущее время: 15-Дек 07:49

Часовой пояс: UTC + 5



Вы не можете начинать темы
Вы не можете отвечать на сообщения
Вы не можете редактировать свои сообщения
Вы не можете удалять свои сообщения
Вы не можете голосовать в опросах
Вы не можете прикреплять файлы к сообщениям
Вы не можете скачивать файлы