Голодные игры: Сойка-пересмешница. Часть I / The Hunger Games: Mockingjay - Part 1 (Френсис Лоуренс) [2014 г., фантастика, приключения, WEB-DLRip-AVC] Dub + Original

Ответить на тему
 

lotto ®

Стаж: 7 лет 10 месяцев

Сообщений: 221

Симпатии: 409

Голодные игры: Сойка-пересмешница. Часть I / The Hunger Games: Mockingjay - Part 1
«Храбрость одного изменит мир»
-- Год выпуска: 2014
Страна: США
Жанр: фантастика, приключения
Продолжительность: 01:57:48
Перевод: Профессиональный (полное дублирование) [Чистый звук]--Режиссер: Френсис Лоуренс
В ролях: Дженнифер Лоуренс, Джош Хатчерсон, Лиам Хемсворт, Вуди Харрельсон, Дональд Сазерленд, Филип Сеймур Хоффман, Джулианна Мур, Уиллоу Шилдс, Сэм Клафлин, Элизабет Бэнкс--Описание: 75-ые Голодные игры изменили все. Китнисс нарушила правила, и непоколебимое до той поры деспотичное правление Капитолия пошатнулось. У людей появилась надежда, и ее символ — Сойка-пересмешница. Теперь, чтобы освободить захваченного в плен Пита и защитить своих близких, Китнисс придется сражаться в настоящих битвах и стать еще сильнее, чем на арене игр.-- --Качество: WEB-DLRip-AVC
Формат: MKV
Видео кодек: H.264
Аудио кодек: AC3
Видео: 1040x432, 1430 kbps, 25 fps
Аудио 1: 48 KHz, 2 ch, 256 kbps (русский, дублированный)
Аудио 2: 48 KHz, 2 ch, 384 kbps (английский)

MediaInfo

General
Unique ID : 291944113177478236730499328223267254178 (0xDBA264165274E2F6CC80FD5972D3EFA2)
Complete name : /C01ka.pePeCmeshHica.2014.D.WEB-DLRip-AVC.mkv
Format : Matroska
Format version : Version 4 / Version 2
File size : 1.74 GiB
Duration : 1h 57mn
Overall bit rate : 2 112 Kbps
Movie name : The.Hunger.Games.Mockingjay.Part.1.2014.D.WEB-DL.1080p.ELEKTRI4KA.uniongang.tv [3imeMachi9e]
Encoded date : UTC 2015-02-20 08:10:00
Writing application : mkvmerge v6.7.0 ('Back to the Ground') 64bit built on Jan 9 2014 18:03:17
Writing library : libebml v1.3.0 + libmatroska v1.4.1
Attachment : Yes / Yes / Yes / Yes
Video
ID : 1
Format : AVC
Format/Info : Advanced Video Codec
Format profile : High@L4.0
Format settings, CABAC : Yes
Format settings, ReFrames : 10 frames
Codec ID : V_MPEG4/ISO/AVC
Duration : 1h 57mn
Bit rate : 1 430 Kbps
Width : 1 040 pixels
Height : 432 pixels
Display aspect ratio : 2.40:1
Frame rate mode : Constant
Frame rate : 25.000 fps
Color space : YUV
Chroma subsampling : 4:2:0
Bit depth : 8 bits
Scan type : Progressive
Bits/(Pixel*Frame) : 0.127
Stream size : 1.18 GiB (68%)
Writing library : x264 core 142 r2389 956c8d8
Encoding settings : cabac=1 / ref=10 / deblock=1:-2:-1 / analyse=0x3:0x113 / me=umh / subme=8 / psy=1 / psy_rd=1,00:0,15 / mixed_ref=1 / me_range=32 / chroma_me=1 / trellis=1 / 8x8dct=1 / cqm=0 / deadzone=21,11 / fast_pskip=1 / chroma_qp_offset=-3 / threads=3 / lookahead_threads=1 / sliced_threads=0 / nr=0 / decimate=1 / interlaced=0 / bluray_compat=0 / constrained_intra=0 / bframes=7 / b_pyramid=2 / b_adapt=2 / b_bias=0 / direct=3 / weightb=1 / open_gop=0 / weightp=2 / keyint=250 / keyint_min=25 / scenecut=40 / intra_refresh=0 / rc_lookahead=50 / rc=crf / mbtree=1 / crf=17,0 / qcomp=0,60 / qpmin=0 / qpmax=69 / qpstep=4 / vbv_maxrate=25000 / vbv_bufsize=31250 / crf_max=0,0 / nal_hrd=none / filler=0 / ip_ratio=1,40 / aq=1:1,00
Language : English
Default : Yes
Forced : No
Color primaries : BT.709
Transfer characteristics : BT.709
Matrix coefficients : BT.709
Audio #1
ID : 2
Format : AC-3
Format/Info : Audio Coding 3
Mode extension : CM (complete main)
Format settings, Endianness : Big
Codec ID : A_AC3
Duration : 1h 57mn
Bit rate mode : Constant
Bit rate : 256 Kbps
Channel(s) : 2 channels
Channel positions : Front: L R
Sampling rate : 48.0 KHz
Bit depth : 16 bits
Compression mode : Lossy
Stream size : 216 MiB (12%)
Title : The.Hunger.Games.Mockingjay.Part.1.2014.D.WEB-DL.1080p.ELEKTRI4KA.uniongang.tv [3imeMachi9e]
Language : Russian
Default : Yes
Forced : No
Audio #2
ID : 3
Format : AC-3
Format/Info : Audio Coding 3
Mode extension : CM (complete main)
Format settings, Endianness : Big
Codec ID : A_AC3
Duration : 1h 57mn
Bit rate mode : Constant
Bit rate : 384 Kbps
Channel(s) : 6 channels
Channel positions : Front: L C R, Side: L R, LFE
Sampling rate : 48.0 KHz
Bit depth : 16 bits
Compression mode : Lossy
Stream size : 324 MiB (18%)
Title : The.Hunger.Games.Mockingjay.Part.1.2014.D.WEB-DL.ELEKTRI4KA.uniongang.tv [3imeMachi9e]
Language : English
Default : No
Forced : No
Menu
00:00:00.000 : en:1
00:15:00.000 : en:2
00:30:00.000 : en:3
00:45:00.000 : en:4
01:00:00.000 : en:5
01:15:00.000 : en:6
01:30:00.000 : en:7
01:45:00.000 : en:8

Скриншоты





Создавать темы 20-Фев-2015 13:30

[Профиль]  [ЛС] 
Показать сообщения:    
Ответить на тему

Текущее время: 22-Ноя 02:19

Часовой пояс: UTC + 5



Вы не можете начинать темы
Вы не можете отвечать на сообщения
Вы не можете редактировать свои сообщения
Вы не можете удалять свои сообщения
Вы не можете голосовать в опросах
Вы не можете прикреплять файлы к сообщениям
Вы не можете скачивать файлы