Тупой и еще тупее 2 / Dumb and Dumber to (Питер Фаррелли, Бобби Фаррелли) [2014 г., Комедия, BDRip-AVC]

Ответить на тему
 

virus902901 ®

Стаж: 5 лет 10 месяцев

Сообщений: 28

Симпатии: 16

Тупой и еще тупее 2 / Dumb and Dumber to
Год выпуска: 2014
Страна: США
Жанр: Комедия
Продолжительность: 01:49:30
Перевод: Профессиональный (многоголосый закадровый) [Студия Пиратского Дубляжа]
Субтитры: Английские
Режиссер: Питер Фаррелли, Бобби Фаррелли
В ролях: Джим Керри, Джефф Дэниелс, Роб Риггл, Лори Холден, Рэйчел Мелвин, Кэтлин Тёрнер, Стив Том, Дон Лейк, Патриция Френч, Билл Мюррей

Описание: Гарри Данн уже целых двадцать лет приходит навещать своего друга Ллойда Кристмаса, который был помещён в псих больницу и, вообще, не может говорить. Но, как оказалось, все это время он просто притворялся. Когда он выходит из больницы, Гарри признается, что неизлечимо болен и нуждается в доноре почки. В доме его приёмных родителей они узнают, что некая девица была беременна от Гарри, и что его ребёнок уже должен быть очень большой. Они решают, что нужно найти ребёнка, и отправляются на его поиски.
Качество: BDRip-AVC
Формат: MKV
Видео кодек: AVC
Аудио кодек: AC3
Видео: 3 000 Kbps, 1024x552, 23.976 fps
Аудио #1: AC3, 448 Kbps, 6 channels, 48.0 KHz [Rus]
Аудио #2: AC3, 448 Kbps, 6 channels, 48.0 KHz [Eng]

Скриншоты





MediaInfo

General
Unique ID : 183046857509209527705106308548745725353 (0x89B58ADB66B6B5F4A41F5AAB135785A9)
Complete name :Тупой и ещё тупее 2.mkv
Format : Matroska
Format version : Version 4 / Version 2
File size : 2.98 GiB
Duration : 1h 49mn
Overall bit rate : 3 898 Kbps
Movie name : -=MediaClub-kaspr=-
Encoded date : UTC 2015-02-08 11:03:00
Writing application : mkvmerge v6.9.1 ('Blue Panther') 64bit built on Apr 18 2014 18:23:38
Writing library : libebml v1.3.0 + libmatroska v1.4.1
Video
ID : 1
Format : AVC
Format/Info : Advanced Video Codec
Format profile : [email protected]
Format settings, CABAC : Yes
Format settings, ReFrames : 10 frames
Codec ID : V_MPEG4/ISO/AVC
Duration : 1h 49mn
Bit rate : 3 000 Kbps
Width : 1 024 pixels
Height : 552 pixels
Display aspect ratio : 1.85:1
Frame rate mode : Constant
Frame rate : 23.976 fps
Color space : YUV
Chroma subsampling : 4:2:0
Bit depth : 8 bits
Scan type : Progressive
Bits/(Pixel*Frame) : 0.221
Stream size : 2.24 GiB (75%)
Title : -=MediaClub-kaspr=-
Writing library : x264 core 142 r2431+42 c69a006 tMod [[email protected]:2:0 X86_64]
Encoding settings : cabac=1 / ref=10 / deblock=1:-3:-3 / analyse=0x3:0x113 / me=umh / subme=11 / psy=1 / fade_compensate=0.00 / psy_rd=1.00:0.00 / mixed_ref=1 / me_range=32 / chroma_me=1 / trellis=2 / 8x8dct=1 / cqm=0 / deadzone=21,11 / fast_pskip=0 / chroma_qp_offset=-2 / threads=12 / lookahead_threads=3 / sliced_threads=0 / nr=0 / decimate=0 / interlaced=0 / bluray_compat=0 / constrained_intra=0 / fgo=0 / bframes=14 / b_pyramid=2 / b_adapt=2 / b_bias=0 / direct=3 / weightb=1 / open_gop=0 / weightp=2 / keyint=240 / keyint_min=23 / scenecut=40 / intra_refresh=0 / rc=2pass / mbtree=0 / bitrate=3000 / ratetol=1.0 / qcomp=0.60 / qpmin=0:0:0 / qpmax=69:69:69 / qpstep=4 / cplxblur=20.0 / qblur=0.5 / ip_ratio=1.40 / pb_ratio=1.30 / aq=4:0.80 / aq-sensitivity=10.00 / aq-factor=1.00:1.00:1.00 / aq2=0 / aq3=0
Default : Yes
Forced : No
Audio #1
ID : 2
Format : AC-3
Format/Info : Audio Coding 3
Mode extension : CM (complete main)
Format settings, Endianness : Big
Codec ID : A_AC3
Duration : 1h 49mn
Bit rate mode : Constant
Bit rate : 448 Kbps
Channel(s) : 6 channels
Channel positions : Front: L C R, Side: L R, LFE
Sampling rate : 48.0 KHz
Bit depth : 16 bits
Compression mode : Lossy
Stream size : 351 MiB (11%)
Title : MVO
Language : Russian
Default : Yes
Forced : No
Audio #2
ID : 3
Format : AC-3
Format/Info : Audio Coding 3
Mode extension : CM (complete main)
Format settings, Endianness : Big
Codec ID : A_AC3
Duration : 1h 49mn
Bit rate mode : Constant
Bit rate : 448 Kbps
Channel(s) : 6 channels
Channel positions : Front: L C R, Side: L R, LFE
Sampling rate : 48.0 KHz
Bit depth : 16 bits
Compression mode : Lossy
Stream size : 351 MiB (11%)
Language : English
Default : No
Forced : No
Text #1
ID : 4
Format : UTF-8
Codec ID : S_TEXT/UTF8
Codec ID/Info : UTF-8 Plain Text
Title : full
Language : English
Default : No
Forced : No
Text #2
ID : 5
Format : UTF-8
Codec ID : S_TEXT/UTF8
Codec ID/Info : UTF-8 Plain Text
Title : SDH
Language : English
Default : No
Forced : No
Text #3
ID : 6
Format : UTF-8
Codec ID : S_TEXT/UTF8
Codec ID/Info : UTF-8 Plain Text
Title : colored
Language : English
Default : No
Forced : No
Menu
00:00:00.000 : en:00:00:00.000
00:04:23.889 : en:00:04:23.889
00:10:19.744 : en:00:10:19.744
00:17:49.694 : en:00:17:49.694
00:24:31.428 : en:00:24:31.428
00:30:35.792 : en:00:30:35.792
00:35:48.146 : en:00:35:48.146
00:40:26.883 : en:00:40:26.883
00:44:24.579 : en:00:44:24.579
00:51:00.933 : en:00:51:00.933
00:54:27.306 : en:00:54:27.306
00:57:44.920 : en:00:57:44.920
01:03:21.464 : en:01:03:21.464
01:09:23.951 : en:01:09:23.951
01:15:05.876 : en:01:15:05.876
01:21:16.080 : en:01:21:16.080
01:24:48.125 : en:01:24:48.125
01:29:38.540 : en:01:29:38.540
01:37:07.947 : en:01:37:07.947
01:42:12.877 : en:01:42:12.877


Последний раз редактировалось: virus902901 (2015-02-24 18:34), всего редактировалось 3 раз(а)

Создавать темы 23-Фев-2015 14:56

[Профиль]  [ЛС] 

Азиз87

Стаж: 5 лет 1 месяц

Сообщений: 752

Симпатии: 143

Злой спойлер

  • судя по постеру в прокат выход с 22.01.2015 ! А Бд через месяц ОГООО оперативно!
  • Скриншоты не соответствуют заявленным данным. Проще выложить Медиа инфо к видео файлу и попросить модератора помочь с правильным оформлением.
  • присутствует жесткий корейский хардсаб, т.е. видео не выше WebRip-а если опираться на https://www.asiatorrents.me
  • итог появление П премодерации, качать недостоверный файл немыслимо

Создавать темы 23-Фев-2015 15:27

[Профиль]  [ЛС] 

Machine

Стаж: 5 лет 3 месяца

Сообщений: 209

Симпатии: 68

virus902901, Выложите МедиаИнфо и залейте скриншоты правильного размера https://tas-ix.net/viewtopic.php?t=41311
Продолжительность укажите в Формате чч:мм:сс
Перевод тут: Профессиональный (многоголосый закадровый)
Укажите правильный Год выпуска фильма...


Последний раз редактировалось: Machine (2015-02-23 16:47), всего редактировалось 1 раз

Создавать темы 23-Фев-2015 16:45

[Профиль]  [ЛС] 

Machine

Стаж: 5 лет 3 месяца

Сообщений: 209

Симпатии: 68

Внимательно посмотрите на всё оформление релиза, а в частности на тех. данные, чтоб впредь не допускать таких ошибок.

Создавать темы 24-Фев-2015 20:50

[Профиль]  [ЛС] 

b3ha

Стаж: 4 года 7 месяцев

Сообщений: 19

Симпатии: 3

virus902901, ДАйте скорость а то не качает

Создавать темы 28-Дек-2015 11:54

[Профиль]  [ЛС] 
Показать сообщения:    
Ответить на тему

Текущее время: 11-Дек 14:17

Часовой пояс: UTC + 5



Вы не можете начинать темы
Вы не можете отвечать на сообщения
Вы не можете редактировать свои сообщения
Вы не можете удалять свои сообщения
Вы не можете голосовать в опросах
Вы не можете прикреплять файлы к сообщениям
Вы не можете скачивать файлы